<?xml version="1.0" standalone="no"?>
<!DOCTYPE svg PUBLIC "-//W3C//DTD SVG 1.1//EN" "http://www.w3.org/Graphics/SVG/1.1/DTD/svg11.dtd" >
<svg xmlns="http://www.w3.org/2000/svg">
<metadata></metadata>
<defs>
<font id="LinuxBiolinumORegular" horiz-adv-x="952" >
<font-face units-per-em="2048" ascent="1638" descent="-410" />
<missing-glyph horiz-adv-x="512" />
<glyph unicode="&#x2e;&#x2e;&#x2e;" horiz-adv-x="1533" d="M111 90v8q15 41 39.5 67t70.5 44h8q45 -17 71 -42.5t40 -68.5v-8q-16 -49 -41.5 -74t-69.5 -36h-8q-48 11 -72.5 35t-37.5 75zM653 90v8q14 41 39.5 67t71.5 44h8q45 -17 71 -42.5t40 -68.5v-8q-16 -49 -41.5 -74t-69.5 -36h-8q-48 11 -73 35t-38 75zM1194 90v8 q14 41 39.5 67t71.5 44h8q45 -17 70.5 -42.5t39.5 -68.5v-8q-16 -49 -41 -74t-69 -36h-8q-48 11 -73 35t-38 75z" />
<glyph horiz-adv-x="0" />
<glyph horiz-adv-x="2048" />
<glyph unicode=" "  horiz-adv-x="512" />
<glyph unicode="&#x09;" horiz-adv-x="512" />
<glyph unicode="&#xa0;" horiz-adv-x="512" />
<glyph unicode="!" horiz-adv-x="466" d="M117 90v8q15 41 39.5 67t70.5 44h9q45 -17 70.5 -42.5t39.5 -68.5v-8q-16 -49 -41 -74t-69 -36h-9q-48 11 -72.5 35t-37.5 75zM121 1198q0 75 34.5 112.5t75.5 37.5q46 0 80.5 -39t34.5 -111q0 -75 -23 -203t-30 -192q-12 -97 -19 -183.5t-10 -134t-4 -55.5 q-4 -41 -29 -41q-15 0 -20.5 7t-7.5 20q-1 13 -5.5 78.5t-11.5 152t-14 156.5q-7 72 -29 194t-22 201z" />
<glyph unicode="&#x22;" horiz-adv-x="688" d="M129 1217q0 36 30.5 69t73.5 33q37 0 54.5 -20t17.5 -48q0 -15 -16.5 -107.5t-33.5 -177.5l-17 -85l-56 -9q-53 327 -53 345zM387 1219q0 36 31 69t74 33q37 0 54 -20t17 -48q0 -15 -16.5 -107.5t-33.5 -177.5l-17 -85l-56 -9q-53 327 -53 345z" />
<glyph unicode="#" horiz-adv-x="962" d="M55 399l15 107h198l39 239h-198l18 109h197l59 371h74l-62 -371h244l57 371h72l-59 -371h198l-16 -109h-197l-41 -239h199l-16 -107h-195l-61 -370h-72l57 370h-239l-62 -370h-71l59 370h-197zM342 506h242l37 239h-240z" />
<glyph unicode="$" d="M84 74q33 134 39 186l18 2q37 -78 105.5 -130t154.5 -65l27 503q-66 28 -115.5 57t-97 71t-73 99t-25.5 125q0 93 54 169t132.5 115.5t162.5 42.5l9 163q27 10 76 10l-10 -175q51 -4 95 -14t70.5 -21.5t45.5 -22.5t26 -19l8 -7l5 -6q-29 -93 -37 -180l-21 -2 q-69 153 -197 187l-24 -444q56 -20 98.5 -39t93 -51t83 -68t55 -89.5t22.5 -116.5q0 -75 -32 -147.5t-91 -122.5q-104 -89 -270 -103l-9 -172q-17 -10 -76 -10l10 181q-92 4 -169 26t-108 42l-31 20zM256 971q0 -140 182 -223l24 423h-3q-92 0 -147.5 -56t-55.5 -144z M476 65q96 7 161 64.5t65 157.5q0 57 -15 99.5t-46 71.5t-61.5 46.5t-77.5 36.5z" />
<glyph unicode="%" horiz-adv-x="1392" d="M129 901q0 130 86 239t201 109q44 0 86.5 -17t60.5 -38q115 -53 234 -53q90 0 185.5 27t141.5 89l70 -34l-897 -1250l-74 33l785 1094q-104 -41 -234 -41q-39 0 -91.5 13.5t-82.5 31.5q6 -21 6 -53q0 -55 -18.5 -119.5t-52 -125.5t-89 -101.5t-120.5 -40.5 q-94 0 -145.5 72t-51.5 165zM242 870q0 -77 30 -110t68 -33q57 0 104.5 55t71 128t23.5 139q0 73 -30.5 103t-68.5 30q-50 0 -97 -51.5t-74 -124t-27 -136.5zM831 215q0 82 37.5 161t105.5 131t146 52q36 0 67 -9t60 -30t45.5 -62t16.5 -98t-18.5 -122.5t-52 -125.5 t-88.5 -99.5t-120 -39.5q-94 0 -146.5 73t-52.5 169zM946 182q0 -78 30 -111.5t68 -33.5q57 0 104.5 55.5t71 128t23.5 137.5q0 40 -10.5 69t-27.5 42t-31.5 18t-28.5 5q-50 0 -97.5 -51t-74.5 -123t-27 -136z" />
<glyph unicode="&#x26;" horiz-adv-x="1454" d="M90 340q0 110 92 212t295 216q-110 171 -110 301q0 46 22 94.5t61 90t102 68t136 26.5q107 0 183.5 -68.5t76.5 -165.5q0 -83 -86 -180.5t-217 -173.5l8 -17q66 -112 242 -350q104 154 152 269.5t61 222.5q20 -6 80 -6q68 0 88 6q-31 -53 -164.5 -293t-159.5 -279l70 -94 q44 -63 87.5 -96t70.5 -33q52 0 88.5 26t66.5 85l33 -17q-33 -102 -88 -153t-113 -51q-31 0 -51.5 3t-52 15t-64.5 42t-67 77l-60 76q-77 -106 -162 -159.5t-208 -53.5q-85 0 -157 20t-130.5 61t-91.5 112.5t-33 166.5zM272 319q0 -73 19.5 -125t54.5 -80t77 -40.5t93 -12.5 q31 0 57.5 5.5t46.5 11.5t43 23.5t36.5 29t37 40.5t35.5 45t41 56q-82 108 -177 246t-114 174q-102 -56 -158.5 -117.5t-74 -119t-17.5 -136.5zM522 1073q0 -41 19.5 -103.5t58.5 -127.5q96 63 153.5 139t57.5 133q0 70 -35.5 112t-97.5 42q-50 0 -103 -52t-53 -143z" />
<glyph unicode="'" horiz-adv-x="389" d="M109 1217q0 36 30.5 69t73.5 33q37 0 54.5 -20t17.5 -48q0 -15 -17 -107.5t-34 -177.5l-17 -85l-55 -9q-53 327 -53 345z" />
<glyph unicode="(" horiz-adv-x="614" d="M90 516q0 274 120.5 520.5t313.5 411.5l47 -37q-21 -24 -38.5 -45t-51.5 -70.5t-60.5 -98.5t-58 -125.5t-52.5 -155.5t-35.5 -184t-14.5 -216q0 -542 311 -899l-47 -35q-87 76 -157.5 164t-115 166t-77 164t-48 149t-24.5 130.5t-10.5 98.5t-1.5 62z" />
<glyph unicode=")" horiz-adv-x="614" d="M43 -379q21 24 38.5 45t51.5 70.5t60.5 98.5t58 125.5t52.5 155.5t35.5 184t14.5 216q0 542 -311 899l47 35q87 -76 157.5 -164t115 -166t77 -164t48 -149t24.5 -130.5t10.5 -98.5t1.5 -62q0 -274 -120.5 -520.5t-313.5 -411.5z" />
<glyph unicode="*" horiz-adv-x="886" d="M154 1245q0 25 16.5 43.5t50.5 18.5q30 0 59 -17.5t65.5 -45t72.5 -42.5q-4 41 -25.5 102t-21.5 87q0 33 17 56t44 23q30 0 49 -18t19 -53q0 -29 -18.5 -99.5t-20.5 -99.5q37 16 73.5 44.5t64 45.5t56.5 17q36 0 53 -20.5t17 -41.5q0 -76 -141 -76q-64 0 -113 -8 q25 -28 72 -58.5t72.5 -57t25.5 -62.5q0 -26 -18 -42.5t-41 -16.5q-36 0 -59.5 33t-46.5 93.5t-40 86.5q-15 -27 -39.5 -90.5t-46.5 -93t-57 -29.5q-26 0 -43 16.5t-17 40.5q0 39 27 65.5t74 56.5t72 58q-36 8 -87 8q-82 0 -123.5 16.5t-41.5 59.5z" />
<glyph unicode="+" horiz-adv-x="1079" d="M135 426v100h352v357h105v-357h352v-100h-352v-356h-105v356h-352z" />
<glyph unicode="," horiz-adv-x="450" d="M98 90v8q14 41 39.5 67t71.5 44h8q62 -23 96.5 -72.5t34.5 -142.5q0 -35 -7 -66t-15 -53t-28 -45.5t-32 -36t-41 -32.5t-42 -28t-48 -28q-26 22 -26 43q81 55 120 100t39 93q0 18 -5 29.5t-15 16t-18.5 6t-20.5 1.5q-52 11 -75 29t-36 67z" />
<glyph unicode="-" horiz-adv-x="681" d="M68 518q0 25 16.5 50.5t34.5 25.5h469q28 0 28 -37q0 -19 -18 -46.5t-37 -27.5h-463q-13 0 -21.5 10.5t-8.5 24.5z" />
<glyph unicode="." horiz-adv-x="450" d="M111 90v8q15 41 39.5 67t70.5 44h8q45 -17 71 -42.5t40 -68.5v-8q-16 -49 -41.5 -74t-69.5 -36h-8q-48 11 -72.5 35t-37.5 75z" />
<glyph unicode="/" horiz-adv-x="661" d="M31 -121l485 1444h84l-485 -1444h-84z" />
<glyph unicode="0" d="M80 592q0 147 33 272t88.5 208.5t127 130t148.5 46.5q118 0 195 -71q33 -30 62 -71t60 -105.5t49.5 -160t18.5 -208.5q0 -138 -26 -251.5t-67.5 -186t-94.5 -123t-105 -71.5t-102 -21q-123 0 -212 84.5t-132 221t-43 306.5zM256 588q0 -44 1.5 -86t7.5 -96.5t15 -101 t25.5 -93t38 -79t54 -53t71.5 -20.5q18 0 38.5 6.5t48.5 24.5t53.5 59.5t41.5 100.5q21 75 28 162.5t7 236.5q0 194 -34 319.5t-85 168.5q-37 32 -90 32q-221 0 -221 -581z" />
<glyph unicode="1" d="M221 1077q86 26 238 89.5t211 82.5q14 0 14 -10q-16 -116 -16 -332v-520q0 -229 18 -387l-4 -6q-57 6 -98 6l-95 -6l-2 6q17 142 17 387v508q0 37 -0.5 57t-4 47t-11.5 39.5t-21 12.5q-22 0 -106.5 -14t-127.5 -19z" />
<glyph unicode="2" d="M108 70q0 14 3 26q4 3 71.5 66t103.5 99t99 101t114.5 128.5t93.5 125.5q38 57 58 132t20 143q0 104 -66 173t-150 69q-98 0 -158 -48q-19 -15 -33.5 -34t-19.5 -29t-19 -42t-18 -40l-27 2l-45 141q29 37 70.5 71t119 64.5t163.5 30.5q169 0 264 -90.5t95 -239.5 q0 -151 -148 -350q-63 -85 -127.5 -159t-100 -109.5t-104.5 -101.5q-36 -36 -36 -56q0 -5 3 -10q56 4 167 4q180 0 375 17q-11 -43 -11 -97q0 -18 7 -67q-243 10 -356 10q-67 0 -126.5 -1.5t-134.5 -4.5t-127 -4q-20 33 -20 80z" />
<glyph unicode="3" d="M113 84l45 154l30 2q43 -92 64 -119q45 -55 141 -61q16 -1 35 -1q26 0 56.5 6t69.5 26t69.5 50.5t51.5 85.5t21 125q0 129 -80 197q-79 65 -200 65q-61 0 -86 -4v90q44 -6 76 -6q116 0 181.5 69.5t65.5 188.5q0 95 -53 156t-117 61q-89 0 -144 -42t-93 -132l-31 2 l-43 131l6 7q50 44 134 79t190 35q149 0 239 -76.5t90 -189.5q0 -118 -75.5 -205t-165.5 -108v-11q121 -11 201.5 -91t80.5 -199q0 -78 -30 -144t-77.5 -110t-107.5 -75.5t-119.5 -45.5t-113.5 -14q-207 0 -311 104z" />
<glyph unicode="4" d="M43 344q0 30 27 80q79 136 255.5 405.5t270.5 399.5l8 8q37 -8 70 -8q17 0 45 4t35 4q4 0 4 -8q-13 -122 -13 -303v-520h132q30 0 30 -33q0 -19 -19.5 -44.5t-39.5 -25.5h-103q0 -110 13 -303q0 -6 -4 -6q-7 0 -37.5 3t-48.5 3l-97 -6l-2 6q17 147 17 303h-422 q-121 0 -121 41zM170 406h416v643z" />
<glyph unicode="5" d="M96 100l45 164l29 2l21 -39t20 -37t19 -31.5t21 -29t22 -23t27.5 -20.5t31.5 -13t39.5 -9.5t46.5 -2.5q105 0 169 83t64 223q0 161 -65 245t-170 84q-45 0 -92 -10t-78.5 -21t-83.5 -32l-15 5l66 603q140 -12 233 -12q169 0 336 20l15 -6l-33 -139q-101 -12 -215 -12 q-123 0 -260 18l-43 -362q84 30 223 30q165 0 263.5 -110.5t98.5 -266.5q0 -182 -117.5 -301.5t-299.5 -119.5q-181 0 -310 114z" />
<glyph unicode="6" d="M94 498q0 153 54.5 292.5t164.5 249.5q103 104 221 153t279 58l6 -57q-112 -11 -199 -45.5t-161 -106.5q-161 -158 -195 -415q36 45 109.5 75.5t136.5 30.5q91 0 161 -29t109 -70.5t64 -94.5t33 -94t8 -76q0 -48 -11 -97t-39 -102.5t-70 -94t-110.5 -67t-154.5 -26.5 q-53 0 -103.5 12t-107 46.5t-98.5 89.5t-69.5 150t-27.5 218zM258 492q0 -105 17.5 -185t44 -126.5t63 -76t70 -39.5t69.5 -10q81 0 132 70.5t51 228.5q0 35 -4.5 69.5t-20 77.5t-40 74.5t-69.5 53.5t-104 22q-125 0 -207 -84q-2 -20 -2 -75z" />
<glyph unicode="7" d="M129 1057q10 77 10 100q0 9 -10 86q103 -14 573 -14q70 0 132 20l34 -20q-106 -260 -200 -511.5t-132.5 -364.5t-125.5 -371l-150 -9l-6 13q129 289 453 1089q-88 5 -283 1t-295 -19z" />
<glyph unicode="8" d="M80 299q0 60 36 125t99 121q65 57 143 117l-41 22q-87 51 -133.5 124.5t-46.5 160.5q0 120 101 200t256 80q149 0 235 -71.5t86 -184.5q0 -46 -23 -91t-65.5 -85.5t-75 -65.5t-78.5 -55l125 -82q179 -117 179 -282q0 -60 -27.5 -121t-78 -112.5t-131.5 -84t-177 -32.5 q-169 0 -276 82.5t-107 234.5zM240 299q0 -66 22 -116.5t57 -78t72.5 -41.5t75.5 -14q31 0 61 5.5t63.5 22t58.5 42t41 69.5t16 101q0 152 -181 266l-94 59q-192 -128 -192 -315zM291 1006q0 -60 28 -113.5t115 -110.5l64 -37q61 44 113.5 110.5t52.5 139.5q0 80 -45 133.5 t-138 53.5q-89 0 -139.5 -50.5t-50.5 -125.5z" />
<glyph unicode="9" d="M57 860q0 48 11 97t39 102.5t70 94t110.5 67t154.5 26.5q53 0 103.5 -12t107 -46.5t98.5 -89.5t69.5 -150t27.5 -218q0 -154 -54.5 -293.5t-164.5 -249.5q-103 -104 -221 -153t-279 -58l-6 58q113 11 199.5 45.5t160.5 105.5q75 74 126.5 181t68.5 235 q-36 -45 -109.5 -75.5t-136.5 -30.5q-91 0 -161 29t-109 70.5t-64 94.5t-33 94t-8 76zM238 874q0 -24 2 -48t8.5 -54t17.5 -56.5t29 -52.5t42 -44t59.5 -29.5t78.5 -11.5q125 0 207 84q2 20 2 75q0 105 -17.5 185t-44 126.5t-63 76t-70 39.5t-69.5 10q-81 0 -131.5 -71 t-50.5 -229z" />
<glyph unicode=":" horiz-adv-x="450" d="M125 190v9q14 41 39.5 66t71.5 44h8q45 -17 70.5 -42t39.5 -68v-9q-16 -49 -41 -74t-69 -36h-8q-48 11 -73 35t-38 75zM125 729v8q14 41 39.5 67t71.5 44h8q45 -17 70.5 -42.5t39.5 -68.5v-8q-16 -49 -41 -74.5t-69 -36.5h-8q-48 11 -73 35.5t-38 75.5z" />
<glyph unicode=";" horiz-adv-x="450" d="M98 90v8q14 41 39.5 67t71.5 44h8q62 -23 96.5 -72.5t34.5 -142.5q0 -35 -7 -66t-15 -53t-28 -45.5t-32 -36t-41 -32.5t-42 -28t-48 -28q-26 22 -26 43q81 55 120 100t39 93q0 18 -5 29.5t-15 16t-18.5 6t-20.5 1.5q-52 11 -75 29t-36 67zM104 729v8q14 41 39.5 67 t71.5 44h8q45 -17 71 -42.5t40 -68.5v-8q-16 -49 -41.5 -74.5t-69.5 -36.5h-8q-48 11 -73 35.5t-38 75.5z" />
<glyph unicode="&#x3c;" horiz-adv-x="997" d="M100 440v99l799 288v-102l-649 -236l649 -237v-102z" />
<glyph unicode="=" horiz-adv-x="1079" d="M135 295v100h809v-100h-809zM135 551v100h809v-100h-809z" />
<glyph unicode="&#x3e;" horiz-adv-x="997" d="M100 145v103l650 235l-650 238v102l799 -291v-98z" />
<glyph unicode="?" horiz-adv-x="829" d="M88 1214l6 9q55 46 141 86.5t183 40.5q156 0 247 -84.5t91 -225.5q0 -47 -14.5 -90t-33 -72.5t-53 -63t-56 -50.5t-60.5 -45q-88 -65 -107 -103q-37 -70 -37 -149v-90q0 -21 -26 -21q-27 0 -27 21v94q0 43 3 73.5t15 77t42 91.5t77 88q66 61 94.5 111.5t28.5 119.5 q0 100 -58 168t-145 68q-141 0 -252 -193l-26 2zM254 90v8q14 41 39.5 67t71.5 44h8q45 -17 70.5 -42.5t39.5 -68.5v-8q-16 -49 -41 -74t-69 -36h-8q-48 11 -73 35t-38 75z" />
<glyph unicode="@" horiz-adv-x="1832" d="M121 457q0 162 67 309t179.5 253.5t268 169t325.5 62.5q162 0 303.5 -51.5t240.5 -141t156 -214t57 -266.5q0 -74 -18 -144.5t-62 -140t-109.5 -121.5t-168.5 -84.5t-232 -32.5q-40 0 -56.5 26t-16.5 58q0 33 30 129l-4 2q-63 -106 -137 -158.5t-135 -52.5 q-72 0 -124.5 27.5t-78 70t-36.5 81.5t-11 75q0 106 44 205.5t113 168.5t154 111t166 42q52 0 97.5 -24.5t60.5 -63.5l10 49l109 26l30 -10l-122 -528q-27 -124 -27 -137t8.5 -19t14.5 -6q82 0 141.5 20.5t105.5 69.5t69 135t23 211q0 122 -39.5 227t-103.5 177 t-145.5 123.5t-165 75.5t-162.5 24q-96 0 -188 -25t-177 -80.5t-149 -135.5t-102.5 -197t-38.5 -258q0 -69 10 -138.5t33.5 -144.5t59 -141.5t91 -127t124 -104t162.5 -69t204 -25.5q241 0 411 135l27 -37q-108 -83 -213 -124.5t-264 -41.5q-180 0 -332.5 61t-256 166 t-162 248t-58.5 306zM709 332q0 -189 159 -189q54 0 121 77t115 190q61 142 61 237q0 57 -38 93t-95 36q-35 0 -89 -20t-95 -62q-139 -139 -139 -362z" />
<glyph unicode="A" horiz-adv-x="1288" d="M33 -6q338 741 604 1354h57q69 -165 197.5 -483.5t223.5 -549t140 -321.5q-35 6 -122 6q-68 0 -103 -6q-45 168 -159 474q-83 5 -240 5q-179 0 -264 -5q-124 -305 -170 -474q-25 6 -93 6q-46 0 -71 -6zM407 565q135 -6 214 -6q100 0 213 5q-97 253 -207 505h-4z" />
<glyph unicode="B" horiz-adv-x="1261" d="M193 0q20 139 20 410v501q0 264 -20 410l4 6q34 -6 104 -6q55 0 141.5 3t118.5 3q110 0 193 -20.5t131.5 -51.5t78.5 -75t40 -84t10 -86q0 -82 -55 -157.5t-136 -115.5q143 -41 227.5 -130.5t84.5 -229.5q0 -57 -13 -108t-48.5 -102.5t-91 -88.5t-146.5 -60.5t-209 -23.5 q-98 0 -183.5 3t-142.5 3q-32 0 -58.5 -1.5t-36.5 -2.5l-11 -2zM389 180q0 -51 46.5 -74.5t152.5 -23.5q86 0 149 13.5t100 35.5t59 56t29 69t7 82q0 146 -90 240t-262 94h-191v-492zM389 760h160q138 0 212.5 51t74.5 174q0 74 -24 127t-64.5 79t-82.5 37t-90 11 q-82 0 -122.5 -10t-52 -28.5t-11.5 -55.5v-385z" />
<glyph unicode="C" horiz-adv-x="1386" d="M106 645q0 147 56.5 279t149.5 224t215 146t251 54q111 0 223 -26t168 -52l56 -25l4 -6q-18 -68 -25 -109.5t-12 -117.5l-25 -2q-121 241 -417 241q-53 0 -109.5 -18.5t-115 -62t-104.5 -106.5t-75 -162t-29 -218q0 -159 57.5 -296t162 -220.5t231.5 -83.5 q144 0 248 47.5t211 165.5l14 -6q11 -27 13 -87q-186 -224 -504 -224q-129 0 -235.5 35t-181.5 97t-126.5 146t-76 181.5t-24.5 205.5z" />
<glyph unicode="D" horiz-adv-x="1454" d="M193 0q20 139 20 410v501q0 264 -20 410l4 6q34 -6 104 -6q65 0 169 3t169 3q145 0 276.5 -55.5t226 -149t150.5 -222.5t56 -269q0 -105 -22.5 -193.5t-60 -153t-91 -115t-112.5 -82.5t-126.5 -53t-131 -29.5t-128.5 -8.5q-114 0 -212.5 2t-162.5 2q-32 0 -58.5 -1.5 t-36.5 -2.5l-11 -2zM389 168q0 -36 14 -51.5t60.5 -23t148.5 -7.5q66 0 120.5 5.5t109.5 20.5t98 39t81 62t63 89.5t39 122t14 157.5q0 100 -17 190t-59 176.5t-106 149t-165 101t-229 38.5q-42 0 -70 -3t-53 -11t-37 -25t-12 -43v-987z" />
<glyph unicode="E" horiz-adv-x="1101" d="M193 0q20 139 20 410v501q0 264 -20 410l4 6q34 -6 104 -6h539q74 0 123 6l4 -6q-4 -58 -4 -78q0 -21 4 -53l-4 -8q-284 24 -557 24q-17 -60 -17 -295v-159q215 0 457 20l6 -6q-6 -27 -6 -66q0 -38 6 -65l-6 -6q-201 20 -457 20v-239q0 -236 17 -295q122 0 266 6t228 12 l83 6l4 -8q-4 -32 -4 -68q0 -5 4 -63l-4 -6q-49 6 -123 6h-559q-32 0 -58.5 -1.5t-36.5 -2.5l-11 -2z" />
<glyph unicode="F" horiz-adv-x="1032" d="M193 0q20 139 20 410v501q0 264 -20 410l4 6q34 -6 104 -6h533q80 0 129 6l4 -6q-4 -58 -4 -70q0 -29 4 -61l-4 -8q-284 24 -557 24q-17 -60 -17 -295v-159q215 0 457 20l6 -6q-6 -27 -6 -66q0 -38 6 -65l-6 -6q-201 20 -457 20v-239q0 -256 21 -410l-4 -6q-35 6 -105 6 q-32 0 -58.5 -1.5t-36.5 -2.5l-11 -2z" />
<glyph unicode="G" horiz-adv-x="1468" d="M106 649q0 131 40.5 245t110 196t161 141t194.5 88t209 29q111 0 228 -26t178 -52l61 -25l4 -6q-33 -116 -41 -238l-24 -2q-70 119 -184 188.5t-250 69.5q-210 0 -343 -161t-133 -426q0 -84 16.5 -166t55 -161.5t94.5 -139.5t142.5 -96.5t191.5 -36.5q219 0 301 77v93 q0 243 -20 389l4 6q34 -6 104 -6q32 0 59 1.5t37 3.5l11 1l2 -6q-21 -143 -21 -348v-13q0 -72 21 -98v-6q-219 -184 -545 -184q-150 0 -276.5 54.5t-210.5 147t-130.5 213.5t-46.5 254z" />
<glyph unicode="H" horiz-adv-x="1486" d="M193 0q20 139 20 410v501q0 264 -20 410l4 6q37 -6 104 -6q69 0 107 6l2 -6q-21 -143 -21 -410v-163h709v163q0 256 -21 410l4 6q38 -6 105 -6q68 0 106 6l2 -6q-20 -136 -20 -410v-501q0 -264 20 -410l-4 -6q-38 6 -104 6q-70 0 -107 -6l-2 6q21 146 21 410v247h-709 v-247q0 -256 21 -410l-4 -6q-37 6 -105 6q-69 0 -106 -6z" />
<glyph unicode="I" horiz-adv-x="602" d="M193 0q20 139 20 410v501q0 264 -20 410l4 6q37 -6 104 -6q68 0 105 6l4 -6q-21 -143 -21 -410v-501q0 -256 21 -410l-4 -6q-37 6 -105 6q-67 0 -104 -6z" />
<glyph unicode="J" horiz-adv-x="655" d="M-84 -328q25 42 57 168l23 2q40 -71 119 -71q34 0 60.5 14.5t44.5 37.5t31 59t19.5 70t10.5 80.5t5 81.5t1 81v716q0 256 -21 410l4 6q38 -6 105 -6q69 0 106 6l2 -6q-20 -136 -20 -410v-671q0 -121 -10 -189t-36 -121t-83 -127q-120 -155 -324 -155q-63 0 -92 18z" />
<glyph unicode="K" horiz-adv-x="1288" d="M193 0q20 139 20 410v501q0 264 -20 410l4 6q37 -6 104 -6q68 0 105 6l4 -6q-21 -143 -21 -410v-206q27 3 45 18q246 216 584 604q27 -6 100 -6q72 0 105 6q-161 -141 -344.5 -316t-278.5 -286v-4l643 -727q-39 6 -127 6q-92 0 -127 -6q-445 549 -561 665q-14 12 -39 14 v-263q0 -256 21 -410l-4 -6q-37 6 -105 6q-67 0 -104 -6z" />
<glyph unicode="L" horiz-adv-x="1054" d="M195 0q20 139 20 410v501q0 264 -20 410l4 6q37 -6 104 -6q69 0 107 6l2 -6q-21 -143 -21 -410v-501q0 -226 17 -285q122 0 266 11t228 22l83 12l4 -8q-4 -32 -4 -72q0 -32 4 -90l-4 -6q-49 6 -123 6h-559q-31 0 -57.5 -1.5t-37.5 -2.5l-11 -2z" />
<glyph unicode="M" horiz-adv-x="1814" d="M131 -6q162 776 264 1362h68q239 -558 459 -1015l17 -1l497 1016h51q80 -699 192 -1362q-31 6 -114 6q-70 0 -101 -6q-33 371 -113 974l-8 1q-231 -458 -454 -969h-39q-223 540 -430 975h-9q-88 -542 -151 -981q-23 6 -61 6q-45 0 -68 -6z" />
<glyph unicode="N" horiz-adv-x="1470" d="M201 0q24 236 29 636q1 105 1 203q0 273 -10 482l4 6q16 -6 86 -6l29 4l702 -909q72 -93 86 -105q25 -22 32 14q2 14 3 40v546q0 264 -20 410l4 6q37 -6 72 -6q33 0 71 6l4 -6q-12 -160 -19 -335.5t-10 -290t-6 -329.5t-6 -323q-3 -63 -39 -63q-52 0 -88 49l-714 903 q-21 27 -32.5 41t-21.5 21t-14.5 5.5t-7.5 -15.5t-3.5 -32t-0.5 -53v-489q0 -264 20 -410l-4 -6q-38 6 -72 6t-71 -6z" />
<glyph unicode="O" horiz-adv-x="1517" d="M106 635q0 198 85 361.5t233.5 257.5t329.5 94q184 0 333 -83t236.5 -237.5t87.5 -353.5q0 -203 -81.5 -361t-231 -245.5t-342.5 -87.5q-177 0 -324 78.5t-236.5 229.5t-89.5 347zM317 670q0 -143 40 -259t108 -189t153 -112.5t179 -39.5q180 0 291.5 148.5t111.5 416.5 q0 311 -125 466.5t-348 155.5q-61 0 -118.5 -19.5t-111 -64t-93 -110.5t-63.5 -167t-24 -226z" />
<glyph unicode="P" horiz-adv-x="1144" d="M193 0q20 139 20 410v501q0 264 -20 410l4 6q37 -6 104 -6q31 0 146 7t141 7q109 0 194.5 -23t137 -59.5t85 -85.5t46 -96t12.5 -96q0 -55 -16 -109.5t-54 -109.5t-94 -97t-143.5 -68t-194.5 -26q-104 0 -172 21v-176q0 -256 21 -410l-4 -6q-37 6 -105 6q-67 0 -104 -6z M389 674q41 -21 162 -21q157 0 235 71t78 241q0 71 -17.5 123t-44 82t-66.5 48t-78 23.5t-85 5.5q-105 0 -144.5 -21.5t-39.5 -68.5v-483z" />
<glyph unicode="Q" horiz-adv-x="1517" d="M106 635q0 198 85 361.5t233.5 257.5t329.5 94q184 0 333 -83t236.5 -237.5t87.5 -353.5q0 -185 -69 -333t-194 -240q12 -7 120.5 -71.5t199 -109t191.5 -78.5v-12q-136 -72 -193 -117q-101 57 -216.5 143.5t-258.5 161.5q-108 -38 -235 -38q-177 0 -324 78.5 t-236.5 229.5t-89.5 347zM317 670q0 -143 40 -259t108 -189t153 -112.5t179 -39.5q180 0 291.5 148.5t111.5 416.5q0 311 -125 466.5t-348 155.5q-61 0 -118.5 -19.5t-111 -64t-93 -110.5t-63.5 -167t-24 -226z" />
<glyph unicode="R" horiz-adv-x="1228" d="M193 0q20 139 20 410v501q0 264 -20 410l4 6q37 -6 104 -6q32 0 142.5 7t134.5 7q82 0 138 -4.5t127.5 -27.5t117.5 -66q108 -102 108 -256q0 -118 -57 -201.5t-148 -128.5q-45 -23 -124 -39q48 -64 214.5 -305.5t223.5 -306.5l-4 -6q-41 6 -123 6q-84 0 -123 -6 q-16 50 -75.5 159.5t-119.5 206.5q-11 17 -37 60l-39 64.5t-35.5 52.5t-42.5 55q-82 -6 -190 -6v-176q0 -256 21 -410l-4 -6q-37 6 -105 6q-67 0 -104 -6zM389 668h119q63 0 114.5 8t99 29.5t80 56t51.5 89.5t19 128q0 64 -18.5 112.5t-47.5 77.5t-69.5 47t-78 24.5 t-78.5 6.5q-73 0 -108 -2t-56 -13.5t-24 -26t-3 -48.5v-489z" />
<glyph unicode="S" horiz-adv-x="1036" d="M102 78q3 10 13 46.5t15 56t11 51t9 57.5l20 2q47 -91 143.5 -156t182.5 -65q97 0 168 64.5t71 174.5q0 63 -17.5 111.5t-53 82.5t-74 57t-94.5 46q-59 25 -103 47.5t-94 58t-81.5 73.5t-53 92t-21.5 116q0 107 65 193t161 127q83 35 176 35q67 0 125.5 -9.5t93.5 -23 t60.5 -27.5t35.5 -24l10 -9l4 -6q-39 -133 -47 -205l-20 -2q-42 96 -118.5 155.5t-160.5 59.5q-78 0 -125 -24q-40 -22 -67 -75t-27 -109q0 -49 17 -90t40 -67t61 -50t65 -35.5t67 -26.5q56 -21 102.5 -43.5t98 -59t86 -78t57.5 -100.5t23 -128q0 -175 -127 -283t-320 -108 q-67 0 -130 9.5t-105.5 23t-75 27t-47.5 22.5l-15 10z" />
<glyph unicode="T" horiz-adv-x="1105" d="M31 1186q3 24 3 58t-3 77l4 6q50 -6 123 -6h790q73 0 123 6l4 -6q-3 -44 -3 -77.5t3 -57.5l-4 -8q-141 28 -414 28q-16 -56 -16 -295v-501q0 -256 21 -410l-5 -6q-37 6 -104 6t-104 -6l-5 6q21 146 21 410v501q0 239 -16 295q-122 0 -225.5 -7t-145.5 -14l-43 -7z" />
<glyph unicode="U" horiz-adv-x="1417" d="M193 1321l4 6q37 -6 104 -6q68 0 105 6l4 -6q-21 -143 -21 -410v-360q0 -28 0.5 -45.5t3.5 -56t8.5 -66.5t17.5 -67.5t28.5 -68t43.5 -59t60 -50t79.5 -32t102.5 -12.5q72 0 130 14.5t97 38.5t68 61.5t45 75.5t25.5 89.5t12.5 95t3 98.5v344q0 264 -20 410l4 6 q38 -6 71 -6q35 0 72 6l4 -6q-20 -136 -20 -410v-307q0 -115 -15 -206t-52.5 -171t-97.5 -133t-153.5 -83.5t-216.5 -30.5q-62 0 -121 11.5t-125.5 45.5t-116 87.5t-82 146t-32.5 212.5v428q0 264 -20 410z" />
<glyph unicode="V" horiz-adv-x="1292" d="M33 1327q51 -6 123 -6q61 0 112 6q123 -436 391 -1056h5q5 11 49.5 114.5t55.5 128.5t51.5 120.5t56 133.5t49 119.5t50.5 127.5t40 109t38.5 111.5t26.5 91.5q35 -6 93 -6q44 0 81 6q-396 -867 -604 -1347h-57q-66 159 -196.5 480t-225 548t-139.5 319z" />
<glyph unicode="W" horiz-adv-x="1947" d="M33 1327q35 -6 123 -6q67 0 102 6q19 -67 51.5 -169t130.5 -360.5t222 -545.5h4q183 424 260 612q-150 399 -176 463q35 -6 122 -6q78 0 113 6q57 -253 330 -1057h4q9 20 56 129.5t62.5 145t58.5 136.5t62.5 149t53 133t52.5 138t39.5 115.5t33.5 110.5q25 -6 102 -6 q47 0 72 6q-396 -867 -604 -1347h-58q-120 337 -269 740l-329 -740h-57q-66 159 -196.5 480t-225 548t-139.5 319z" />
<glyph unicode="X" horiz-adv-x="1189" d="M47 -6l453 663l-443 670q35 -6 115 -6t117 6q17 -35 42 -79t62.5 -102.5t66 -103t80 -123t78.5 -119.5q138 200 195.5 290.5t136.5 236.5q23 -6 86 -6t86 6q-6 -8 -168.5 -232t-274.5 -388q19 -29 83 -127.5t85 -130.5t72 -109.5t80.5 -121t72.5 -105.5t83 -119 q-37 6 -119 6q-81 0 -118 -6q-38 73 -87 155t-77 125.5t-101 152t-91 136.5q-203 -310 -343 -569q-23 6 -86 6t-86 -6z" />
<glyph unicode="Y" horiz-adv-x="1191" d="M33 1327q52 -6 117 -6q64 0 116 6q50 -97 103.5 -191.5t140 -242t115.5 -197.5q227 355 358 631q37 -6 86 -6q45 0 86 6q-64 -98 -162 -246t-140.5 -213t-91.5 -145.5t-79 -138.5q5 -476 14 -590q-38 6 -102 6t-102 -6q14 158 14 569q-63 107 -239 391.5t-234 372.5z" />
<glyph unicode="Z" horiz-adv-x="1273" d="M88 2q13 17 31.5 44t21.5 32l756 1108q7 12 4.5 18t-10.5 6q-225 0 -727 -43l-4 7q4 32 4 67q0 22 -4 80l4 6q50 -6 125 -6h622q49 0 141 4t117 8q13 0 13 -12q0 -25 -62 -111l-727 -1063q-10 -14 -10 -36q119 0 313.5 10.5t329.5 21.5l135 11l4 -7q-4 -32 -4 -67 q0 -22 4 -80l-4 -6q-49 6 -145 6h-744l-178 -6z" />
<glyph unicode="[" horiz-adv-x="739" d="M225 -393v1833h441v-62q-74 -5 -120.5 -11t-82.5 -18.5t-53.5 -25.5t-28.5 -40.5t-13.5 -55.5t-2.5 -78v-1251q0 -50 2.5 -78t13 -55.5t28.5 -41t54 -26t82.5 -19t120.5 -12.5v-59h-441z" />
<glyph unicode="\" horiz-adv-x="598" d="M23 1430h100l471 -1528h-100z" />
<glyph unicode="]" horiz-adv-x="739" d="M74 -332q74 5 120.5 11t82 18.5t53.5 26t29 41t13.5 55.5t2.5 78v1251q0 50 -2.5 78t-13.5 55.5t-28 40.5t-53.5 26t-82.5 19t-121 12v60h440v-1833h-440v61z" />
<glyph unicode="^" horiz-adv-x="1060" d="M229 709l260 622h86l259 -622h-93l-211 505l-208 -505h-93z" />
<glyph unicode="_" horiz-adv-x="995" d="M10 -225h977v-90h-977v90z" />
<glyph unicode="`" horiz-adv-x="802" d="M197 1366l4 23q63 47 133 47q15 0 31 -4l143 -258q12 -24 12 -50q0 -8 -9.5 -15t-21.5 -7q-15 0 -59 41z" />
<glyph unicode="a" horiz-adv-x="985" d="M92 201q0 104 91 183t249 114l191 43q14 5 14 24q0 66 -14 113.5t-33 71.5t-49 38t-51 16.5t-50 2.5q-67 0 -121 -47t-104 -127l-27 2l-34 137l6 8q37 31 67.5 52t96 44t137.5 23q51 0 95.5 -7.5t90.5 -30t78.5 -58t53 -96t20.5 -140.5q0 -7 -3 -141t-3 -168 q0 -129 34 -160q16 -15 60 -15q25 0 55 11l16 -51q-59 -63 -163 -63q-58 0 -100.5 30t-59.5 88h-8q-83 -70 -139 -94t-140 -24q-119 0 -187.5 55.5t-68.5 165.5zM258 209q0 -50 43 -87.5t109 -37.5q82 0 188 80q29 22 29 53l8 244l-174 -47q-114 -31 -158.5 -81t-44.5 -124z " />
<glyph unicode="b" horiz-adv-x="1032" d="M143 1382l4 7q91 7 179 41q18 0 18 -21q-12 -151 -12 -385v-227q94 102 256 102q153 0 265 -120.5t112 -303.5q0 -125 -39 -223t-103.5 -155.5t-141 -87t-157.5 -29.5q-62 0 -127 29t-114 71q-34 -63 -68 -100q-41 0 -57 16q10 50 10 154v837q0 259 -25 395zM332 166 q33 -42 84 -73.5t96 -31.5q142 0 206 100.5t64 297.5q0 180 -66.5 269t-168.5 89q-60 0 -105 -27t-110 -94v-530z" />
<glyph unicode="c" horiz-adv-x="878" d="M78 446q0 101 38 188t100 144t140 89t158 32q75 0 149.5 -16t122.5 -41l5 -6l-48 -168l-26 -2q-88 151 -205 151q-106 0 -180 -98.5t-74 -261.5q0 -175 75 -275t191 -100q62 0 113 18.5t106 67.5h9l39 -43q-114 -145 -302 -145t-299.5 126.5t-111.5 339.5z" />
<glyph unicode="d" horiz-adv-x="1085" d="M104 436q0 207 130.5 335t332.5 128q33 0 86 -13t86 -32v133q0 297 -18 395l4 7q90 7 178 41q19 0 19 -21q-19 -239 -19 -385v-631q0 -201 35 -393l-4 -6q-41 6 -91 6q-17 0 -71 -6q-18 0 -18 6l-11 119h-4q-108 -139 -264 -139q-163 0 -267 132t-104 324zM283 453 q0 -182 57.5 -274.5t146.5 -92.5q64 0 130.5 37.5t121.5 107.5v467q-39 62 -82 90.5t-112 28.5q-34 0 -66 -8t-69 -32t-64 -62.5t-45 -106t-18 -155.5z" />
<glyph unicode="e" horiz-adv-x="927" d="M70 428q0 109 35.5 200t95 149t134 90t154.5 32q78 0 140.5 -24t101.5 -62.5t65.5 -90t37 -103.5t10.5 -107q0 -35 -37 -35h-557q0 -181 49 -260q38 -62 99.5 -89.5t123.5 -27.5q177 0 281 113l41 -51q-60 -82 -155 -132t-202 -50q-103 0 -187.5 35.5t-137.5 99.5 q-92 109 -92 313zM256 559h377q29 0 29 29q0 108 -53 168.5t-120 60.5q-22 0 -46 -6t-54 -23.5t-55 -45t-46.5 -75t-31.5 -108.5z" />
<glyph unicode="f" horiz-adv-x="643" d="M39 799q27 42 45 84q27 -4 119 -4v79q0 173 112 314q57 73 148 115.5t188 42.5q58 0 92 -21l2 -6q-31 -64 -57 -168l-22 -2q-18 32 -49.5 52t-69.5 20q-87 0 -139 -53t-52 -138q0 -14 5.5 -94.5t5.5 -122.5v-18h88q75 0 143 4l10 -15q-16 -40 -24 -84q-36 4 -148 4h-69 v-380q0 -270 20 -408l-4 -6q-37 6 -98 6t-99 -6l-4 6q21 136 21 408v380h-2q-103 0 -152 -4z" />
<glyph unicode="g" horiz-adv-x="1021" d="M66 -254q0 28 13.5 66.5t33.5 68.5q91 71 174 104q-79 14 -119.5 62t-40.5 115q0 79 131 170q-145 84 -145 256q0 73 31.5 133.5t82 98.5t111.5 58.5t123 20.5q64 0 125 -18q87 5 187.5 20.5t135.5 18.5l6 -7q-6 -27 -6 -53t6 -53l-6 -6q-144 15 -213 21 q103 -69 103 -238q0 -126 -93 -215.5t-247 -89.5q-98 0 -152 28q-55 -48 -55 -114q0 -59 32.5 -78t86.5 -19q29 0 113 7.5t110 7.5q210 0 289 -68q86 -74 86 -203q0 -146 -136.5 -235.5t-373.5 -89.5q-112 0 -198.5 23.5t-140.5 76.5t-54 131zM207 -213q0 -66 40.5 -109 t98 -59t129.5 -16q141 0 242.5 50.5t101.5 139.5q0 101 -80 148q-38 23 -84 28.5t-133 5.5q-10 0 -79 -3t-103 -3q-56 -30 -94.5 -81t-38.5 -101zM272 598q0 -114 44.5 -176t148.5 -62q88 0 131 61.5t43 160.5q0 239 -186 239q-88 0 -134.5 -60t-46.5 -163z" />
<glyph unicode="h" horiz-adv-x="1124" d="M166 0q18 129 18 369v616q0 299 -18 397l4 7q90 7 178 41q19 0 19 -21q-19 -239 -19 -383v-305l4 -6q46 55 98.5 93.5t100 57t85 26t71.5 7.5q135 0 194.5 -80t59.5 -244q0 -33 -2.5 -103t-2.5 -103q0 -230 19 -369l-4 -6q-37 6 -97 6q-58 0 -96 -6l-4 6q19 131 19 369 v200q0 121 -33.5 164t-114.5 43q-63 0 -144 -41.5t-153 -126.5v-239q0 -221 19 -369l-5 -6q-38 6 -96 6t-96 -6z" />
<glyph unicode="i" horiz-adv-x="532" d="M164 1223q0 41 31.5 72.5t72.5 31.5t73 -31.5t32 -72.5t-32 -73t-73 -32t-72.5 32t-31.5 73zM166 0q18 133 18 369v112q0 276 -18 398l4 6q31 -2 88 -2t90 4q12 0 15.5 -4t3.5 -17q-19 -183 -19 -352v-145q0 -222 19 -369l-5 -6q-38 6 -96 6t-96 -6z" />
<glyph unicode="j" horiz-adv-x="557" d="M-84 -418q8 31 8 182l33 9q52 -92 123 -92q41 0 68 39t39.5 116.5t17 159t4.5 201.5v284q0 269 -19 398l5 6q31 -2 88 -2t90 4q12 0 15 -3.5t3 -17.5q-18 -173 -18 -352v-268q0 -223 -20.5 -334t-69.5 -188q-105 -166 -277 -166q-59 0 -88 18zM184 1223q0 41 32 72.5 t73 31.5t72.5 -31.5t31.5 -72.5t-31.5 -73t-72.5 -32t-73 32t-32 73z" />
<glyph unicode="k" horiz-adv-x="1030" d="M166 0q18 132 18 410v577q0 297 -18 395l4 7q90 7 178 41q19 0 19 -21q-19 -247 -19 -385v-532q56 4 90 30q63 48 161.5 156t162.5 201q168 0 207 6l4 -6q-91 -77 -216.5 -197t-197.5 -195q87 -105 162.5 -186t160.5 -165t134 -136l-4 -6q-27 6 -123 6q-89 0 -135 -6 q-86 125 -120 172.5t-85.5 110.5t-116.5 131q-12 11 -39 16.5t-45 5.5v-20q0 -271 19 -410l-5 -6q-38 6 -96 6t-96 -6z" />
<glyph unicode="l" horiz-adv-x="516" d="M166 0q18 132 18 410v577q0 297 -18 395l4 7q90 7 178 41q19 0 19 -21q-19 -247 -19 -385v-614q0 -271 19 -410l-5 -6q-38 6 -96 6t-96 -6z" />
<glyph unicode="m" horiz-adv-x="1652" d="M150 0q18 125 18 369v112q0 284 -18 398l4 6q32 -3 64 -3q52 0 101 9q13 0 13 -21v-149l6 -6q173 184 344 184q86 0 144.5 -44t72.5 -118q154 162 346 162q64 0 111 -17t74 -44.5t43 -71.5t21 -88.5t5 -104.5v-204q0 -230 19 -369l-5 -6q-37 6 -96 6t-96 -6l-4 6 q18 125 18 369v225q0 100 -39 141t-125 41q-72 0 -132.5 -24.5t-127.5 -98.5q2 -25 2 -78v-206q0 -230 19 -369l-4 -6q-38 6 -97 6t-96 -6l-4 6q19 132 19 369v225q0 182 -136 182q-55 0 -133 -44t-149 -116v-247q0 -237 18 -369l-4 -6q-38 6 -96 6t-96 -6z" />
<glyph unicode="n" horiz-adv-x="1103" d="M152 0q18 125 18 369v112q0 284 -18 398l4 6q33 -3 64 -3q52 0 102 9q12 0 12 -21v-149l4 -6q46 55 98 93.5t100 57t85 26t71 7.5q135 0 194.5 -80t59.5 -244q0 -33 -2 -103t-2 -103q0 -230 19 -369l-5 -6q-38 6 -96 6t-96 -6l-4 6q18 132 18 369v200q0 121 -33 164 t-114 43q-63 0 -144 -41.5t-153 -126.5v-239q0 -237 18 -369l-4 -6q-38 6 -96 6t-96 -6z" />
<glyph unicode="o" horiz-adv-x="1024" d="M78 420q0 218 120.5 348.5t321.5 130.5q204 0 315 -124t111 -337q0 -204 -117 -331t-317 -127q-199 0 -316.5 125t-117.5 315zM258 455q0 -52 7 -102t26.5 -104.5t49 -95t78.5 -66.5t111 -26q102 0 169 96.5t67 243.5q0 101 -10.5 171t-38 128.5t-80 87.5t-131.5 29 q-56 0 -99.5 -21t-71 -55t-45.5 -82t-25 -98t-7 -106z" />
<glyph unicode="p" horiz-adv-x="1071" d="M150 -475q18 132 18 409v547q0 284 -18 398l4 6q32 -3 64 -3q52 0 101 9q13 0 13 -21v-149l4 -6q121 184 276 184q110 0 193 -62t123.5 -157.5t40.5 -206.5q0 -220 -117 -356.5t-317 -136.5q-121 0 -203 45v-91q0 -269 18 -409l-4 -6q-37 6 -96 6q-58 0 -96 -6zM332 154 q80 -93 190 -93q63 0 111.5 24.5t77 62.5t46.5 90.5t24.5 102.5t6.5 105q0 174 -53 266.5t-157 92.5q-61 0 -137 -61.5t-109 -141.5v-448z" />
<glyph unicode="q" horiz-adv-x="1069" d="M100 442q0 200 122.5 328.5t303.5 128.5q138 0 224 -14q33 -5 74.5 -5t90.5 5l5 -6q-19 -121 -19 -398v-547q0 -278 19 -409l-5 -6q-26 6 -96 6q-32 0 -56 -1.5t-32 -3.5l-8 -1l-4 6q18 116 18 409v113q-28 -24 -94.5 -45.5t-146.5 -21.5q-102 0 -180.5 41.5t-124 110 t-68.5 147.5t-23 163zM281 465q0 -110 24 -191t64 -123.5t84 -61.5t92 -19q35 0 95.5 18.5t96.5 46.5v344q0 91 -1.5 164t-3.5 100l-1 27q-56 47 -192 47q-115 0 -186.5 -96.5t-71.5 -255.5z" />
<glyph unicode="r" horiz-adv-x="727" d="M160 0q18 124 18 369v112q0 284 -18 398l4 6q33 -3 64 -3q52 0 102 9q12 0 12 -21v-186l6 -4q71 123 125.5 171t134.5 48q14 0 23.5 -1t13.5 -2t16.5 -5t20.5 -6l8 -8l-41 -152l-16 -4q-31 29 -107 29q-30 0 -61 -19t-53 -53q-37 -58 -53.5 -100.5t-16.5 -102.5v-106 q0 -229 18 -369l-4 -6q-38 6 -96 6t-96 -6z" />
<glyph unicode="s" horiz-adv-x="811" d="M68 35l34 172l31 2q46 -65 109.5 -106.5t132.5 -41.5q84 0 136 45t52 125q0 68 -50.5 102.5t-156.5 63.5q-53 15 -91 31.5t-76 45t-58 72.5t-20 103q0 81 46.5 139.5t115 84.5t147.5 26q74 0 151.5 -18t124.5 -43l4 -7l-41 -151l-28 -2q-59 69 -93 94q-60 45 -126 45 q-69 0 -112.5 -34t-43.5 -95q0 -113 190 -160q60 -14 105.5 -33.5t87 -50t64 -77.5t22.5 -107q0 -37 -8.5 -72.5t-32.5 -74.5t-61.5 -67.5t-101 -47t-144.5 -18.5q-152 0 -309 55z" />
<glyph unicode="t" horiz-adv-x="696" d="M39 799q27 42 45 84q33 -4 111 -4q0 120 8 262l4 6q30 4 52.5 11.5t49 20.5t41.5 19q19 0 19 -20q-11 -145 -11 -299h97q21 0 47.5 0.5t55 2t40.5 1.5l10 -15q-16 -40 -24 -84q-36 4 -148 4h-78v-258q0 -69 -3 -159t-3 -113q0 -84 15.5 -123t52.5 -45q24 -4 48 -4 q56 0 113 20l25 -51q-64 -41 -118 -58t-119 -17q-76 0 -128.5 51t-52.5 145q0 23 3.5 143t3.5 189v280q-99 0 -146 -4z" />
<glyph unicode="u" horiz-adv-x="1099" d="M152 879l4 6q38 -6 96 -6t96 6l4 -6q-18 -123 -18 -369v-203q0 -68 11 -113t32 -65.5t42 -27.5t52 -7q71 0 151 65t130 150v201q0 230 -19 369l4 6q37 -6 97 -6q58 0 96 6l4 -6q-19 -129 -19 -369v-117q0 -201 35 -393l-4 -6q-40 6 -91 6q-27 0 -81 -6q-8 0 -8 6l-10 182 l-8 6q-57 -87 -139 -147.5t-171 -60.5q-73 0 -127 24t-83.5 65.5t-43.5 90t-14 104.5v246q0 237 -18 369z" />
<glyph unicode="v" horiz-adv-x="946" d="M41 885q33 -6 119 -6q75 0 102 6q9 -30 42 -135t47.5 -151t43 -129t54.5 -150.5t56 -134.5h5q42 89 83.5 207t88.5 265.5t76 227.5q18 -6 69 -6q60 0 78 6q-254 -574 -366 -891q-18 6 -62 6q-43 0 -63 -6q-177 461 -373 891z" />
<glyph unicode="w" horiz-adv-x="1478" d="M41 883q33 -6 119 -6q75 0 102 6q7 -23 35.5 -114t39 -123.5t36 -110t42.5 -123.5t42 -110t50 -120h13q63 136 170 435q-64 171 -96 268q33 -6 119 -6q75 0 102 6q94 -432 196 -700h17q120 281 252 700q18 -6 70 -6q70 0 88 6q-134 -293 -381 -891q-18 6 -76 6 q-33 0 -53 -6q-26 71 -57 152t-69.5 180t-58.5 153q-64 -156 -182 -487q-18 6 -74 6q-47 0 -67 -6q-145 376 -379 891z" />
<glyph unicode="x" horiz-adv-x="931" d="M49 885q40 -6 119 -6q69 0 111 6q19 -32 61.5 -105t75.5 -126.5t70 -103.5q50 66 130.5 187.5t98.5 147.5q26 -6 76 -6q61 0 92 6l-336 -413q27 -40 99.5 -147.5t125.5 -183t109 -147.5q-64 6 -117 6q-69 0 -105 -6q-18 28 -93.5 152.5t-123.5 191.5 q-46 -64 -118.5 -181.5t-102.5 -162.5q-31 6 -90 6q-44 0 -74 -6l321 430z" />
<glyph unicode="y" horiz-adv-x="1036" d="M57 885q29 -6 107 -6q73 0 100 6q11 -34 24 -71.5t23.5 -67t27 -73t25.5 -66.5t29 -73t26.5 -67t30 -74t28 -68t31 -75t29.5 -71h4q133 283 269 706q20 -6 80 -6q68 0 88 6q-85 -171 -314 -687.5t-280 -682.5q-33 10 -100 10q-39 0 -72 -10q145 240 242 465 q-25 68 -84.5 205t-108 245t-122.5 271t-83 184z" />
<glyph unicode="z" horiz-adv-x="851" d="M41 3q19 23 45 63l481 720q-104 -1 -221 -6.5t-182 -10.5l-64 -5l-4 6q4 32 4 53q0 2 -4 56l4 6q46 -6 115 -6h418q26 0 65 3t68 6t32 3q11 0 11 -12q-15 -17 -61 -86l-470 -701q111 0 239 6t201 12l73 5l4 -6q-4 -32 -4 -54q0 -1 4 -55l-4 -6q-47 6 -115 6h-463l-166 -6 z" />
<glyph unicode="{" horiz-adv-x="567" d="M29 481q-25 25 0 49q105 10 152.5 75t47.5 153l-12 377q-3 84 19 146t65 97.5t99 52.5t128 17q9 -9 9 -24.5t-9 -24.5q-30 -9 -48.5 -16.5t-44.5 -27t-40 -46t-23.5 -72.5t-6.5 -107l16 -339q6 -128 -47 -188.5t-168 -92.5v-8q113 -47 167 -117t48 -190l-16 -306 q-6 -123 43 -198.5t120 -75.5q9 -9 9 -24.5t-9 -24.5q-82 0 -138 15t-98 52t-60.5 103t-14.5 164l12 348q7 208 -200 233z" />
<glyph unicode="|" horiz-adv-x="430" d="M166 -475v1905h100v-1905h-100z" />
<glyph unicode="}" horiz-adv-x="567" d="M22 -411.5q0 15.5 9 24.5q30 9 48.5 16.5t45 27t40.5 45.5t23.5 72t6.5 107l-17 340q-6 128 47 188.5t168 92.5v8q-113 47 -167 117t-48 190l17 305q6 123 -43.5 199t-120.5 76q-9 9 -9 24.5t9 24.5q82 0 138 -15t98 -52t60.5 -103t14.5 -164l-12 -348q-7 -209 200 -234 q24 -24 0 -49q-105 -10 -152.5 -74.5t-47.5 -152.5l12 -377q3 -84 -19 -146t-65 -97.5t-99 -52.5t-128 -17q-9 9 -9 24.5z" />
<glyph unicode="~" horiz-adv-x="919" d="M53 428q21 104 96 183t166 79q26 0 58 -13.5t63 -33t61.5 -39.5t62 -33.5t56.5 -13.5q32 0 68 12t75 44.5t60 80.5l35 -12q-22 -77 -57 -130t-72.5 -76t-65 -31.5t-51.5 -8.5q-35 0 -77 21t-75.5 45.5t-75.5 45.5t-77 21q-57 0 -123 -41t-100 -106z" />
<glyph unicode="&#xa1;" horiz-adv-x="466" d="M121 -319q0 75 23 203t30 192q12 97 19 183.5t10 134t4 55.5q3 40 29 40q24 0 28 -26q1 -13 5.5 -78.5t11.5 -152t14 -156.5q7 -72 29 -194t22 -201q0 -75 -34.5 -112.5t-75.5 -37.5q-46 0 -80.5 39t-34.5 111zM121 780v8q16 49 41 74.5t69 36.5h9q48 -11 72.5 -35 t37.5 -76v-8q-14 -41 -39 -66.5t-71 -43.5h-9q-45 17 -70.5 42t-39.5 68z" />
<glyph unicode="&#xa2;" horiz-adv-x="1024" d="M154 670q0 180 108.5 303.5t260.5 152.5v218h79v-211q76 0 151 -16.5t125 -42.5l4 -6l-48 -172l-27 -2q-42 72 -94.5 113t-110.5 42v-751h8q63 0 115.5 19t108.5 69h9l39 -44q-108 -139 -280 -148v-222h-79v224q-170 18 -269.5 145t-99.5 329zM338 681 q0 -143 50.5 -238.5t134.5 -128.5v721q-82 -31 -133.5 -124.5t-51.5 -229.5z" />
<glyph unicode="&#xa3;" horiz-adv-x="1024" d="M40 37q0 29 29 54.5t82 54.5q90 66 123 184t33 289v37h-139q-9 0 -12 2.5t-3 11.5v30q0 17 13.5 31.5t40.5 14.5h100v45q0 137 31.5 215t117.5 164q156 156 388 156q59 0 93 -19l3 -7q-31 -53 -59 -167l-23 -3q-41 72 -118 72q-92 0 -174 -92.5t-82 -207.5v-156h274 q16 0 16 -13v-49q0 -13 -16.5 -20.5t-36.5 -7.5h-237q-2 -306 -161 -456h12q70 0 122 -10.5t82 -26t55.5 -30.5t57 -25.5t71.5 -10.5q62 0 125.5 21.5t102.5 74.5l40 -23q-41 -88 -121.5 -140.5t-185.5 -52.5q-54 0 -97 13.5t-72 32.5l-58 38t-71 32.5t-95 13.5 q-93 0 -93 -54q0 -37 -25 -56.5t-64 -19.5q-31 0 -50 16.5t-19 43.5z" />
<glyph unicode="&#xa4;" horiz-adv-x="1024" d="M63 316l125 100q-90 108 -90 254q0 151 90 256l-121 95l86 93l108 -119q113 82 248 82q144 0 254 -86l107 128l91 -96l-128 -102q88 -106 88 -251q0 -138 -86 -249l121 -102l-84 -89l-107 119q-114 -86 -256 -86q-140 0 -251 84l-100 -124zM237 672q0 -131 75.5 -221.5 t196.5 -90.5q119 0 194.5 91t75.5 219q0 129 -78 219t-187 90q-120 0 -198.5 -90t-78.5 -217z" />
<glyph unicode="&#xa5;" horiz-adv-x="1024" d="M9 1337q35 -7 119 -7q81 0 116 7q145 -379 292 -635q34 53 64.5 109.5t62 128t51 117.5t58 141.5t56.5 138.5q23 -7 86 -7q60 0 86 7q-172 -302 -385 -712h299q16 0 16 -13v-49q0 -15 -16.5 -23t-36.5 -8h-280q1 -24 1.5 -72.5t0.5 -73.5h315q16 0 16 -14v-46 q0 -15 -16.5 -23t-36.5 -8h-277q5 -199 12 -302q-33 7 -107 7q-72 0 -105 -7q8 79 12 302h-303q-8 0 -9.5 2t-1.5 9v3v31q0 18 12 32t39 14h264q0 25 0.5 74t0.5 72h-305q-6 0 -8.5 1.5t-2.5 3.5v10v32q0 18 12 32t39 14h233q-39 72 -185.5 357t-187.5 355z" />
<glyph unicode="&#xa6;" horiz-adv-x="419" d="M166 330h98v-742h-98v742zM166 639v741h98v-741h-98z" />
<glyph unicode="&#xa7;" horiz-adv-x="989" d="M102 547q0 88 42.5 162t111.5 125q-90 96 -90 223q0 51 24 102.5t66 93.5t106 68.5t138 26.5q47 0 89.5 -11t79.5 -33t57 -37t50 -41q5 -5 8 -7l7 -11l-35 -149l-29 -4q-26 45 -48.5 77t-53.5 65.5t-67.5 51t-76.5 17.5q-73 0 -123.5 -47.5t-50.5 -120.5q0 -135 164 -203 q41 -17 75.5 -33t79 -41t79.5 -51t70 -61t59 -73t38.5 -86.5t14.5 -100.5q0 -88 -42.5 -162.5t-111.5 -125.5q90 -96 90 -222q0 -51 -24 -102.5t-66 -93.5t-106 -68.5t-138 -26.5q-47 0 -89.5 11t-79.5 33t-57 37t-50 41q-5 5 -8 7l-6 10l34 150l29 4q21 -36 38 -62 t41.5 -56t48.5 -49t54.5 -31.5t63.5 -12.5q73 0 123.5 47.5t50.5 120.5q0 134 -164 202q-41 17 -76 33t-79 41t-79 51t-70 61.5t-59 73.5t-38.5 86.5t-14.5 100.5zM219 625q0 -56 24.5 -105.5t62 -83.5t90 -67.5t101 -57t103 -53.5t87.5 -55q83 83 83 168q0 56 -24.5 105 t-62 83t-90.5 67.5t-101 57.5t-102.5 54t-87.5 55q-35 -35 -59 -79.5t-24 -88.5z" />
<glyph unicode="&#xa8;" horiz-adv-x="776" d="M102 1176q0 40 28.5 69t68.5 29t68 -29t28 -69t-28 -68.5t-68 -28.5t-68.5 28.5t-28.5 68.5zM449 1176q0 40 28 69t68 29t68 -29t28 -69t-28 -68.5t-68 -28.5t-68 28.5t-28 68.5z" />
<glyph unicode="&#xa9;" horiz-adv-x="1296" d="M70 627q0 117 46 224t123.5 184.5t184.5 123t225 45.5q157 0 290 -77t210.5 -210t77.5 -290t-77.5 -290.5t-210.5 -211.5t-290 -78q-158 0 -291.5 78.5t-210.5 212t-77 289.5zM133 627q0 -139 68.5 -257.5t187.5 -187.5t260 -69q139 0 257.5 68.5t187.5 187t69 258.5 t-68.5 258.5t-187 187t-258.5 68.5q-141 0 -260 -68.5t-187.5 -187t-68.5 -258.5zM338 616q0 130 95 225t229 95q82 0 132.5 -15.5t69.5 -15.5l29 -160l-41 -8q-29 77 -72.5 114.5t-126.5 37.5q-34 0 -64.5 -11.5t-59.5 -38.5t-46.5 -78.5t-17.5 -123.5q0 -117 55 -191.5 t156 -74.5q113 0 184 102l39 -31q-35 -53 -99 -92t-143 -39q-134 0 -226.5 90.5t-92.5 214.5z" />
<glyph unicode="&#xaa;" horiz-adv-x="608" d="M53 870q0 64 56.5 112.5t154.5 72.5l115 26q8 4 8 15q0 50 -11 83t-31.5 46.5t-36.5 17.5t-38 4q-42 0 -74.5 -30t-64.5 -82h-16l-23 90q80 80 191 80q209 0 209 -207q0 -4 -2.5 -119.5t-2.5 -136.5q0 -39 21 -39q6 0 13.5 3t13 6.5t13 9t9.5 7.5l4 -2l21 -26 q-30 -38 -56 -53t-57 -15q-41 0 -59.5 24.5t-20.5 49.5h-8q-53 -45 -85 -59.5t-83 -14.5q-74 0 -117 34.5t-43 102.5zM162 874q0 -31 24.5 -53t65.5 -22q49 0 113 49q16 13 16 33l6 151l-104 -31q-69 -21 -95 -51t-26 -76z" />
<glyph unicode="&#xab;" horiz-adv-x="1112" d="M152 428v25q162 142 378 374q17 -2 31.5 -13t18.5 -26q-133 -204 -261 -348q128 -144 261 -348q-4 -15 -18.5 -26t-31.5 -13q-221 237 -378 375zM520 428v25q168 147 379 374q17 -2 31 -13t18 -26q-136 -208 -260 -348q124 -140 260 -348q-4 -15 -18 -26t-31 -13 q-217 233 -379 375z" />
<glyph unicode="&#xac;" horiz-adv-x="1146" d="M49 731v90h1051v-549h-111v459h-940z" />
<glyph unicode="&#xad;" horiz-adv-x="681" d="M68 518q0 25 16.5 50.5t34.5 25.5h469q28 0 28 -37q0 -19 -18 -46.5t-37 -27.5h-463q-13 0 -21.5 10.5t-8.5 24.5z" />
<glyph unicode="&#xae;" horiz-adv-x="1296" d="M70 627q0 117 46 224t123.5 184.5t184.5 123t225 45.5q157 0 290 -77t210.5 -210t77.5 -290t-77.5 -290.5t-210.5 -211.5t-290 -78q-158 0 -291.5 78.5t-210.5 212t-77 289.5zM133 627q0 -139 68.5 -257.5t187.5 -187.5t260 -69q139 0 257.5 68.5t187.5 187t69 258.5 t-68.5 258.5t-187 187t-258.5 68.5q-141 0 -260 -68.5t-187.5 -187t-68.5 -258.5zM403 872v35l5 4h278q55 0 95.5 -15t61.5 -39t30.5 -49t9.5 -50q0 -57 -34 -96.5t-85 -55.5l98 -168q31 -53 88 -43l8 -35q-35 -14 -73 -14q-82 0 -125 72l-98 164q-11 8 -76 8v-148 q0 -40 24 -43l29 -4q22 -6 23 -12v-33l-5 -4q-83 4 -120 4l-125 -4l-4 4v35q0 7 16 9q3 1 4 1l35 4q26 3 26 43v369q0 25 -13.5 38t-33.5 13h-22q-17 0 -17 10zM586 639h65q55 0 87 24t32 95q0 104 -102 104q-82 0 -82 -51v-172z" />
<glyph unicode="&#xaf;" horiz-adv-x="813" d="M121 1114q0 20 13.5 40t31.5 20h500q14 0 21 -9t7 -20q0 -20 -15 -41t-34 -21h-500q-24 0 -24 31z" />
<glyph unicode="&#xb0;" horiz-adv-x="546" d="M70 1075q0 86 59.5 145.5t144.5 59.5t144 -59.5t59 -145.5q0 -85 -59 -144t-144 -59t-144.5 59t-59.5 144zM137 1073q0 -57 37.5 -100t99.5 -43q60 0 98 43.5t38 99.5q0 57 -36 103.5t-100 46.5q-63 0 -100 -45t-37 -105z" />
<glyph unicode="&#xb1;" horiz-adv-x="1079" d="M135 39v100h809v-100h-809zM135 600v100h352v357h105v-357h352v-100h-352v-356h-105v356h-352z" />
<glyph unicode="&#xb2;" horiz-adv-x="636" d="M78 745q0 72 149 224l82 80q68 70 68 192q0 40 -28.5 75.5t-65.5 35.5q-87 0 -138 -92h-26l-23 86q65 65 195 65q102 0 167.5 -43.5t65.5 -128.5q0 -84 -106 -184l-109 -107q-71 -71 -71 -94h88q68 0 202 10q-6 -28 -6 -71q0 -23 6 -52q-96 4 -188 4q-81 0 -260 -4z" />
<glyph unicode="&#xb3;" horiz-adv-x="641" d="M94 799l25 86l24 2q32 -56 50 -72q28 -24 83 -24q58 0 88.5 40.5t30.5 106.5q0 127 -121 127q-25 0 -41 -2v51q150 6 150 139q0 40 -22 70.5t-56 30.5q-56 0 -82 -21.5t-55 -75.5h-27l-22 86l2 7q68 59 192 59q87 0 142 -34t55 -105q0 -133 -129 -166v-4q71 -6 116.5 -48 t45.5 -110q0 -100 -76 -154.5t-193 -54.5q-114 0 -180 66z" />
<glyph unicode="&#xb4;" horiz-adv-x="698" d="M180 1139q0 4 0.5 8t1 6.5t2 6.5t2 6t3.5 7t4 6.5t5.5 8t5.5 8.5l154 244q12 4 29 4q64 0 113 -47l6 -23l-236 -223q-39 -39 -61 -39q-11 0 -20 8.5t-9 18.5z" />
<glyph unicode="&#xb5;" horiz-adv-x="995" d="M90 879q27 0 90 9t78 11q6 -131 6 -197v-401q0 -229 142 -229q80 0 151 38.5t107 92.5v676q29 0 85.5 9.5t67.5 10.5v-645q0 -60 1 -84.5t5.5 -51t15.5 -34.5t31 -8q19 0 35.5 21t34.5 65l49 -23q-32 -84 -71.5 -121.5t-114.5 -37.5q-58 0 -98.5 41.5t-40.5 101.5 q-130 -143 -297 -143q-34 0 -67 13.5t-50 33.5q-9 0 -17 -6t-8 -13q0 -72 33 -199t33 -165q0 -60 -23.5 -91.5t-60.5 -31.5q-32 0 -71.5 38.5t-39.5 94.5q0 49 16.5 155.5t16.5 174.5q0 28 -9 126t-9 164v385q0 25 -5.5 80t-10.5 97z" />
<glyph unicode="&#xb6;" horiz-adv-x="1232" d="M117 985q0 63 23.5 122t69 108.5t122.5 79.5t174 30q89 0 202 -2t128 -2l202 6l2 -6q-20 -136 -20 -410v-977q0 -263 20 -409l-4 -6q-132 6 -202 6l-201 -6l-4 6q20 146 20 409v650q-27 -6 -65 -6q-227 0 -347 102t-120 305zM752 -330q0 -39 22.5 -58.5t59.5 -19.5 q84 0 84 78v1506q0 44 -22 60.5t-62 16.5q-82 0 -82 -77v-1506z" />
<glyph unicode="&#xb7;" horiz-adv-x="512" d="M141 514v8q14 41 39.5 67t71.5 44h8q45 -17 71 -42.5t40 -68.5v-8q-16 -49 -41.5 -74.5t-69.5 -36.5h-8q-48 11 -73 35.5t-38 75.5z" />
<glyph unicode="&#xb8;" horiz-adv-x="1107" d="M442 -375q0 32 21 53q77 -28 119 -28q47 0 75.5 21.5t28.5 60.5q0 71 -68 71q-52 0 -92 -12l-12 12l82 197h70l-52 -137q24 6 54 6q63 0 104 -35t41 -92q0 -66 -62.5 -109t-156.5 -43q-74 0 -152 35z" />
<glyph unicode="&#xb9;" horiz-adv-x="786" d="M229 1327q76 19 275 82q6 0 6 -6q-12 -84 -12 -176v-277q0 -125 14 -205l-2 -4q-33 4 -78 4q-43 0 -74 -4v4q13 80 13 205v267q0 69 -21 69q-72 0 -119 -6z" />
<glyph unicode="&#xba;" horiz-adv-x="714" d="M80 879q0 131 75 205.5t207 74.5q73 0 127.5 -22t86 -61t46.5 -85t15 -100q0 -113 -74 -191.5t-211 -78.5q-115 0 -193.5 74t-78.5 184zM199 899q0 -85 45.5 -153t130.5 -68q23 0 46 8t46.5 26.5t38 56t14.5 89.5q0 120 -46 185t-124 65q-73 0 -112 -60t-39 -149z" />
<glyph unicode="&#xbb;" horiz-adv-x="1112" d="M164 92q136 208 260 348q-124 140 -260 348q4 15 18 26t31 13q211 -227 379 -374v-25q-162 -142 -379 -375q-17 2 -31 13t-18 26zM532 92q133 204 261 348q-128 144 -261 348q4 15 18.5 26t31.5 13q211 -227 379 -374v-25q-162 -142 -379 -375q-17 2 -31.5 13t-18.5 26z " />
<glyph unicode="&#xbc;" horiz-adv-x="1351" d="M201 -111l940 1342l84 -17l-938 -1341zM223 1227q76 19 275 82q6 0 6 -6q-12 -84 -12 -177v-276q0 -125 14 -205l-2 -4q-33 4 -78 4q-43 0 -74 -4v4q13 80 13 205v266q0 70 -21 70q-72 0 -119 -6zM752 31q0 35 12 51q120 162 280 428v4q11 -4 54 -4q42 0 73 4l3 -4 q-11 -86 -11 -162v-260h78q14 0 14 -22q0 -13 -10 -31.5t-20 -18.5h-62q0 -76 11 -159l-3 -4q-31 4 -73 4q-45 0 -76 -4v4q12 91 12 159h-221q-59 0 -61 15zM836 88h198v313z" />
<glyph unicode="&#xbd;" horiz-adv-x="1351" d="M152 -111l938 1342l86 -17l-940 -1341zM227 1227q76 19 275 82q6 0 6 -6q-12 -84 -12 -177v-276q0 -125 14 -205l-2 -4q-33 4 -78 4q-43 0 -74 -4v4q13 80 13 205v266q0 70 -21 70q-72 0 -119 -6zM811 -162q0 70 150 223l81 80q68 70 68 193q0 40 -28.5 75t-65.5 35 q-86 0 -137 -92h-27l-23 86q82 66 195 66q102 0 167.5 -43.5t65.5 -128.5t-106 -185l-109 -106q-71 -71 -71 -94h88q69 0 203 10q-7 -33 -7 -72q0 -18 7 -51q-96 4 -189 4q-81 0 -260 -4z" />
<glyph unicode="&#xbe;" horiz-adv-x="1351" d="M90 694l25 86l24 2q3 -5 8 -14q15 -26 22.5 -37t22 -24t33 -17t47.5 -4q58 0 88.5 41t30.5 107q0 127 -121 127q-17 0 -41 -3v52q150 6 150 139q0 26 -9.5 48.5t-27.5 37t-41 14.5q-30 0 -51 -5.5t-36.5 -20t-25 -28.5t-24.5 -42h-27l-22 86l2 6q69 60 192 60 q87 0 142 -34.5t55 -105.5q0 -133 -129 -166v-4q45 -4 81.5 -23.5t58.5 -54t22 -79.5q0 -100 -76 -154.5t-193 -54.5q-115 0 -180 65zM211 -111l940 1342l84 -17l-938 -1341zM760 35q0 35 12 51q126 169 281 428v4q11 -4 53 -4q43 0 74 4l2 -4q-11 -86 -11 -162v-260h78 q15 0 15 -22q0 -13 -11 -31.5t-20 -18.5h-62q0 -76 11 -159l-2 -4q-31 4 -74 4q-45 0 -76 -4v4q12 91 12 159h-221q-59 0 -61 15zM844 92h198v314z" />
<glyph unicode="&#xbf;" horiz-adv-x="829" d="M76 -162q0 47 14.5 90t33 72.5t52.5 63t56.5 51t60.5 45.5q87 65 106 102q37 70 37 150v90q0 20 27 20q26 0 26 -20v-94q0 -43 -3 -73.5t-15 -77t-42 -91.5t-77 -88q-65 -61 -94 -112t-29 -120q0 -100 58 -167.5t145 -67.5q141 0 252 192l27 -2l32 -137l-6 -8 q-55 -46 -140.5 -86.5t-182.5 -40.5q-156 0 -247 84.5t-91 224.5zM348 780v8q16 49 41.5 74.5t69.5 36.5h8q48 -11 73 -35.5t38 -75.5v-8q-14 -41 -39.5 -66t-71.5 -44h-8q-45 17 -71 42t-40 68z" />
<glyph unicode="&#xc0;" horiz-adv-x="1288" d="M33 -6q338 741 604 1354h57q69 -165 197.5 -483.5t223.5 -549t140 -321.5q-35 6 -122 6q-68 0 -103 -6q-45 168 -159 474q-83 5 -240 5q-179 0 -264 -5q-124 -305 -170 -474q-25 6 -93 6q-46 0 -71 -6zM369 1583q62 60 155 92l248 -172q31 -22 31 -43q0 -12 -9.5 -21 t-21.5 -9q-31 0 -88 24zM407 565q135 -6 214 -6q100 0 213 5q-97 253 -207 505h-4z" />
<glyph unicode="&#xc1;" horiz-adv-x="1288" d="M33 -6q338 741 604 1354h57q69 -165 197.5 -483.5t223.5 -549t140 -321.5q-35 6 -122 6q-68 0 -103 -6q-45 168 -159 474q-83 5 -240 5q-179 0 -264 -5q-124 -305 -170 -474q-25 6 -93 6q-46 0 -71 -6zM407 565q135 -6 214 -6q100 0 213 5q-97 253 -207 505h-4zM467 1460 q0 22 31 43l254 176q88 -40 127 -106l-295 -119q-57 -24 -86 -24q-13 0 -22 9t-9 21z" />
<glyph unicode="&#xc2;" horiz-adv-x="1288" d="M33 -6q338 741 604 1354h57q69 -165 197.5 -483.5t223.5 -549t140 -321.5q-35 6 -122 6q-68 0 -103 -6q-45 168 -159 474q-83 5 -240 5q-179 0 -264 -5q-124 -305 -170 -474q-25 6 -93 6q-46 0 -71 -6zM407 565q135 -6 214 -6q100 0 213 5q-97 253 -207 505h-4zM418 1456 q90 68 203 193h88q85 -103 206 -193l-32 -43q-124 58 -217 127q-103 -74 -220 -127z" />
<glyph unicode="&#xc3;" horiz-adv-x="1288" d="M33 -6q338 741 604 1354h57q69 -165 197.5 -483.5t223.5 -549t140 -321.5q-35 6 -122 6q-68 0 -103 -6q-45 168 -159 474q-83 5 -240 5q-179 0 -264 -5q-124 -305 -170 -474q-25 6 -93 6q-46 0 -71 -6zM389 1444q22 93 60.5 137.5t103.5 44.5q66 0 147 -57 q59 -45 107 -45q36 0 58.5 22t43.5 84l49 -12q-37 -184 -178 -184q-52 0 -131 53q-72 45 -110 45q-39 0 -62.5 -23t-38.5 -75zM407 565q135 -6 214 -6q100 0 213 5q-97 253 -207 505h-4z" />
<glyph unicode="&#xc4;" horiz-adv-x="1288" d="M33 -6q338 741 604 1354h57q69 -165 197.5 -483.5t223.5 -549t140 -321.5q-35 6 -122 6q-68 0 -103 -6q-45 168 -159 474q-83 5 -240 5q-179 0 -264 -5q-124 -305 -170 -474q-25 6 -93 6q-46 0 -71 -6zM293 1452q0 38 28 65t66 27t65 -27t27 -65t-27 -65t-65 -27t-66 27 t-28 65zM407 565q135 -6 214 -6q100 0 213 5q-97 253 -207 505h-4zM856 1452q0 38 28 65t66 27t65 -27t27 -65t-27 -65t-65 -27t-66 27t-28 65z" />
<glyph unicode="&#xc5;" horiz-adv-x="1288" d="M33 -6q341 747 583 1305q-56 15 -93.5 60.5t-37.5 102.5q0 70 54 120t125 50q72 0 125 -49.5t53 -120.5q0 -57 -36 -102t-92 -61q66 -159 192 -471t215.5 -529t133.5 -305q-35 6 -122 6q-68 0 -103 -6q-45 168 -159 474q-83 5 -240 5q-179 0 -264 -5q-124 -305 -170 -474 q-25 6 -93 6q-46 0 -71 -6zM407 565q135 -6 214 -6q100 0 213 5q-97 253 -207 505h-4zM561 1462q0 -45 29 -79.5t74 -34.5t73.5 34.5t28.5 79.5q0 48 -28.5 81.5t-73.5 33.5q-46 0 -74.5 -34t-28.5 -81z" />
<glyph unicode="&#xc6;" horiz-adv-x="1642" d="M37 -6q43 82 196 384.5t268 514t249 429.5l4 5q34 -6 104 -6h436q74 0 123 6l4 -6q-4 -58 -4 -64q0 -21 4 -53l-4 -8q-159 21 -375 21q-116 0 -148.5 -19t-24.5 -81q40 -196 95 -435q223 0 459 20l7 -6q-7 -31 -7 -57q0 -25 7 -57l-7 -7q-181 19 -439 21 q67 -285 121 -482l435 21l4 -8q-4 -32 -4 -68q0 -1 4 -59l-4 -6q-49 6 -123 6h-393q-67 0 -102 -6q0 98 -91 578q-45 1 -135 1q-127 0 -241 -3q-171 -357 -254 -576q-25 6 -92 6q-47 0 -72 -6zM502 667q183 -3 184 -3q82 0 127 1q-9 45 -37 190.5t-46 237.5h-4 q-103 -182 -224 -426z" />
<glyph unicode="&#xc7;" horiz-adv-x="1386" d="M106 645q0 147 56.5 279t149.5 224t215 146t251 54q111 0 223 -26t168 -52l56 -25l4 -6q-18 -68 -25 -109.5t-12 -117.5l-25 -2q-121 241 -417 241q-53 0 -109.5 -18.5t-115 -62t-104.5 -106.5t-75 -162t-29 -218q0 -159 57.5 -296t162 -220.5t231.5 -83.5 q144 0 248 47.5t211 165.5l14 -6q11 -27 13 -87q-172 -208 -459 -223l-47 -126q24 6 53 6q63 0 104 -35t41 -92q0 -66 -62.5 -109t-156.5 -43q-74 0 -152 35q0 32 21 53q77 -28 119 -28q47 0 75.5 21.5t28.5 60.5q0 71 -67 71q-53 0 -93 -12l-12 12l77 185q-124 4 -226.5 41 t-174 98.5t-121 145t-73 179t-23.5 201.5z" />
<glyph unicode="&#xc8;" horiz-adv-x="1101" d="M193 0q20 139 20 410v501q0 264 -20 410l4 6q34 -6 104 -6h539q74 0 123 6l4 -6q-4 -58 -4 -78q0 -21 4 -53l-4 -8q-284 24 -557 24q-17 -60 -17 -295v-159q215 0 457 20l6 -6q-6 -27 -6 -66q0 -38 6 -65l-6 -6q-201 20 -457 20v-239q0 -236 17 -295q122 0 266 6t228 12 l83 6l4 -8q-4 -32 -4 -68q0 -5 4 -63l-4 -6q-49 6 -123 6h-559q-32 0 -58.5 -1.5t-36.5 -2.5l-11 -2zM346 1581q61 59 156 92l248 -172q30 -21 30 -43q0 -12 -9 -21.5t-21 -9.5q-28 0 -88 25z" />
<glyph unicode="&#xc9;" horiz-adv-x="1101" d="M193 0q20 139 20 410v501q0 264 -20 410l4 6q34 -6 104 -6h539q74 0 123 6l4 -6q-4 -58 -4 -78q0 -21 4 -53l-4 -8q-284 24 -557 24q-17 -60 -17 -295v-159q215 0 457 20l6 -6q-6 -27 -6 -66q0 -38 6 -65l-6 -6q-201 20 -457 20v-239q0 -236 17 -295q122 0 266 6t228 12 l83 6l4 -8q-4 -32 -4 -68q0 -5 4 -63l-4 -6q-49 6 -123 6h-559q-32 0 -58.5 -1.5t-36.5 -2.5l-11 -2zM432 1460q0 22 31 43l254 176q88 -40 127 -106l-295 -119q-57 -24 -86 -24q-13 0 -22 9t-9 21z" />
<glyph unicode="&#xca;" horiz-adv-x="1101" d="M193 0q20 139 20 410v501q0 264 -20 410l4 6q34 -6 104 -6h539q74 0 123 6l4 -6q-4 -58 -4 -78q0 -21 4 -53l-4 -8q-284 24 -557 24q-17 -60 -17 -295v-159q215 0 457 20l6 -6q-6 -27 -6 -66q0 -38 6 -65l-6 -6q-201 20 -457 20v-239q0 -236 17 -295q122 0 266 6t228 12 l83 6l4 -8q-4 -32 -4 -68q0 -5 4 -63l-4 -6q-49 6 -123 6h-559q-32 0 -58.5 -1.5t-36.5 -2.5l-11 -2zM358 1456q90 68 203 193h88q83 -101 207 -193l-33 -43q-124 58 -217 127q-104 -76 -219 -127z" />
<glyph unicode="&#xcb;" horiz-adv-x="1101" d="M193 0q20 139 20 410v501q0 264 -20 410l4 6q34 -6 104 -6h539q74 0 123 6l4 -6q-4 -58 -4 -78q0 -21 4 -53l-4 -8q-284 24 -557 24q-17 -60 -17 -295v-159q215 0 457 20l6 -6q-6 -27 -6 -66q0 -38 6 -65l-6 -6q-201 20 -457 20v-239q0 -236 17 -295q122 0 266 6t228 12 l83 6l4 -8q-4 -32 -4 -68q0 -5 4 -63l-4 -6q-49 6 -123 6h-559q-32 0 -58.5 -1.5t-36.5 -2.5l-11 -2zM297 1538q0 40 29 69t69 29t69.5 -29t29.5 -69t-29.5 -69t-69.5 -29t-69 29t-29 69zM684 1538q0 40 29 69t69 29t69.5 -29t29.5 -69t-29.5 -69t-69.5 -29t-69 29t-29 69z " />
<glyph unicode="&#xcc;" horiz-adv-x="602" d="M47 1581q61 59 156 92l248 -172q30 -21 30 -43q0 -12 -9 -21.5t-21 -9.5q-29 0 -89 25zM193 0q20 139 20 410v501q0 264 -20 410l4 6q37 -6 104 -6q68 0 105 6l4 -6q-21 -143 -21 -410v-501q0 -256 21 -410l-4 -6q-37 6 -105 6q-67 0 -104 -6z" />
<glyph unicode="&#xcd;" horiz-adv-x="602" d="M145 1458q0 22 31 43l254 176q88 -40 127 -106l-295 -119q-60 -25 -86 -25q-13 0 -22 9.5t-9 21.5zM193 0q20 139 20 410v501q0 264 -20 410l4 6q37 -6 104 -6q68 0 105 6l4 -6q-21 -143 -21 -410v-501q0 -256 21 -410l-4 -6q-37 6 -105 6q-67 0 -104 -6z" />
<glyph unicode="&#xce;" horiz-adv-x="602" d="M51 1456q90 68 203 193h88q83 -101 207 -193l-33 -43q-124 58 -217 127q-104 -76 -219 -127zM193 0q20 139 20 410v501q0 264 -20 410l4 6q37 -6 104 -6q68 0 105 6l4 -6q-21 -143 -21 -410v-501q0 -256 21 -410l-4 -6q-37 6 -105 6q-67 0 -104 -6z" />
<glyph unicode="&#xcf;" horiz-adv-x="602" d="M27 1536q0 40 29 69t69 29t69 -29t29 -69t-29 -69t-69 -29t-69 29t-29 69zM193 0q20 139 20 410v501q0 264 -20 410l4 6q37 -6 104 -6q68 0 105 6l4 -6q-21 -143 -21 -410v-501q0 -256 21 -410l-4 -6q-37 6 -105 6q-67 0 -104 -6zM414 1536q0 40 29 69t69 29t69 -29 t29 -69t-29 -69t-69 -29t-69 29t-29 69z" />
<glyph unicode="&#xd0;" horiz-adv-x="1454" d="M35 588v80h178v243q0 264 -20 410l4 6q34 -6 104 -6q65 0 169 3t169 3q145 0 276.5 -55.5t226 -149t150.5 -222.5t56 -269q0 -105 -22.5 -193.5t-60 -153t-91 -115t-112.5 -82.5t-126.5 -53t-131 -29.5t-128.5 -8.5q-114 0 -212.5 2t-162.5 2q-32 0 -58.5 -1.5 t-36.5 -2.5l-11 -2l-2 6q20 139 20 410v178h-178zM389 168q0 -36 14 -51.5t60.5 -23t148.5 -7.5q66 0 120.5 5.5t109.5 20.5t98 39t81 62t63 89.5t39 122t14 157.5q0 100 -17 190t-59 176.5t-106 149t-165 101t-229 38.5q-42 0 -70 -3t-53 -11t-37 -25t-12 -43v-487h201v-80 h-201v-420z" />
<glyph unicode="&#xd1;" horiz-adv-x="1470" d="M201 0q24 236 29 636.5t-9 684.5l4 6q16 -6 86 -6l29 4l702 -909q72 -93 86 -105q25 -22 32 14q2 14 3 40v546q0 264 -20 410l4 6q37 -6 72 -6q33 0 71 6l4 -6q-12 -160 -19 -335.5t-10 -290t-6.5 -329.5t-5.5 -323q-3 -63 -39 -63q-52 0 -88 49l-714 903 q-21 27 -32.5 41t-21.5 21t-14.5 5.5t-7.5 -15.5t-3.5 -32t-0.5 -53v-489q0 -264 20 -410l-4 -6q-38 6 -72 6t-71 -6zM436 1440q22 93 60.5 137.5t103.5 44.5q67 0 148 -57q59 -45 106 -45q36 0 58.5 22t43.5 84l50 -12q-37 -184 -179 -184q-52 0 -131 53q-72 45 -110 45 q-39 0 -62.5 -23t-38.5 -75z" />
<glyph unicode="&#xd2;" horiz-adv-x="1517" d="M106 635q0 198 85 361.5t233.5 257.5t329.5 94q184 0 333 -83t236.5 -237.5t87.5 -353.5q0 -203 -81.5 -361t-231 -245.5t-342.5 -87.5q-177 0 -324 78.5t-236.5 229.5t-89.5 347zM317 670q0 -143 40 -259t108 -189t153 -112.5t179 -39.5q180 0 291.5 148.5t111.5 416.5 q0 311 -125 466.5t-348 155.5q-61 0 -118.5 -19.5t-111 -64t-93 -110.5t-63.5 -167t-24 -226zM467 1585q61 59 156 92l247 -172q31 -22 31 -43q0 -12 -9.5 -21t-21.5 -9q-31 0 -88 24z" />
<glyph unicode="&#xd3;" horiz-adv-x="1517" d="M106 635q0 198 85 361.5t233.5 257.5t329.5 94q184 0 333 -83t236.5 -237.5t87.5 -353.5q0 -203 -81.5 -361t-231 -245.5t-342.5 -87.5q-177 0 -324 78.5t-236.5 229.5t-89.5 347zM317 670q0 -143 40 -259t108 -189t153 -112.5t179 -39.5q180 0 291.5 148.5t111.5 416.5 q0 311 -125 466.5t-348 155.5q-61 0 -118.5 -19.5t-111 -64t-93 -110.5t-63.5 -167t-24 -226zM508 1460q0 22 31 43l254 176q88 -40 127 -106l-295 -119q-57 -24 -86 -24q-13 0 -22 9t-9 21z" />
<glyph unicode="&#xd4;" horiz-adv-x="1517" d="M106 635q0 198 85 361.5t233.5 257.5t329.5 94q184 0 333 -83t236.5 -237.5t87.5 -353.5q0 -203 -81.5 -361t-231 -245.5t-342.5 -87.5q-177 0 -324 78.5t-236.5 229.5t-89.5 347zM317 670q0 -143 40 -259t108 -189t153 -112.5t179 -39.5q180 0 291.5 148.5t111.5 416.5 q0 311 -125 466.5t-348 155.5q-61 0 -118.5 -19.5t-111 -64t-93 -110.5t-63.5 -167t-24 -226zM504 1456q90 68 203 193h88q85 -103 206 -193l-32 -43q-124 58 -217 127q-103 -74 -220 -127z" />
<glyph unicode="&#xd5;" horiz-adv-x="1517" d="M106 635q0 198 85 361.5t233.5 257.5t329.5 94q184 0 333 -83t236.5 -237.5t87.5 -353.5q0 -203 -81.5 -361t-231 -245.5t-342.5 -87.5q-177 0 -324 78.5t-236.5 229.5t-89.5 347zM317 670q0 -143 40 -259t108 -189t153 -112.5t179 -39.5q180 0 291.5 148.5t111.5 416.5 q0 311 -125 466.5t-348 155.5q-61 0 -118.5 -19.5t-111 -64t-93 -110.5t-63.5 -167t-24 -226zM453 1440q22 93 60.5 137.5t102.5 44.5q67 0 148 -57q59 -45 106 -45q36 0 59 22t44 84l49 -12q-37 -184 -178 -184q-52 0 -131 53q-72 45 -111 45t-62 -23t-38 -75z" />
<glyph unicode="&#xd6;" horiz-adv-x="1517" d="M106 635q0 198 85 361.5t233.5 257.5t329.5 94q184 0 333 -83t236.5 -237.5t87.5 -353.5q0 -203 -81.5 -361t-231 -245.5t-342.5 -87.5q-177 0 -324 78.5t-236.5 229.5t-89.5 347zM193 1452q0 38 28 65t66 27t65 -27t27 -65t-27 -65t-65 -27t-66 27t-28 65zM317 670 q0 -143 40 -259t108 -189t153 -112.5t179 -39.5q180 0 291.5 148.5t111.5 416.5q0 311 -125 466.5t-348 155.5q-61 0 -118.5 -19.5t-111 -64t-93 -110.5t-63.5 -167t-24 -226zM1141 1452q0 38 27 65t65 27t65 -27t27 -65t-27 -65t-65 -27t-65 27t-27 65z" />
<glyph unicode="&#xd7;" horiz-adv-x="1079" d="M217 221l252 250l-252 252l74 72l250 -252l250 252l71 -72l-252 -252l252 -250l-71 -71l-250 249l-250 -249z" />
<glyph unicode="&#xd8;" horiz-adv-x="1517" d="M106 635q0 198 85 361.5t233.5 257.5t329.5 94q207 0 370 -107l86 107q28 0 49 -19t25 -43l-84 -104q100 -91 155.5 -221t55.5 -287q0 -203 -81.5 -361t-231 -245.5t-342.5 -87.5q-242 0 -416 140l-119 -147q-28 0 -48.5 20.5t-25.5 45.5l121 149q-162 180 -162 447z M317 670q0 -192 72 -334l653 804q-118 117 -315 117q-61 0 -118.5 -19.5t-111 -64t-93 -110.5t-63.5 -167t-24 -226zM444 248q67 -87 159 -132.5t194 -45.5q180 0 291.5 148.5t111.5 416.5q0 271 -97 427z" />
<glyph unicode="&#xd9;" horiz-adv-x="1417" d="M193 1321l4 6q37 -6 104 -6q68 0 105 6l4 -6q-21 -143 -21 -410v-360q0 -28 0.5 -45.5t3.5 -56t8.5 -66.5t17.5 -67.5t28.5 -68t43.5 -59t60 -50t79.5 -32t102.5 -12.5q72 0 130 14.5t97 38.5t68 61.5t45 75.5t25.5 89.5t12.5 95t3 98.5v344q0 264 -20 410l4 6 q38 -6 71 -6q35 0 72 6l4 -6q-20 -136 -20 -410v-307q0 -115 -15 -206t-52.5 -171t-97.5 -133t-153.5 -83.5t-216.5 -30.5q-62 0 -121 11.5t-125.5 45.5t-116 87.5t-82 146t-32.5 212.5v428q0 264 -20 410zM532 1583q61 59 156 92l248 -172q31 -22 31 -43q0 -12 -9.5 -21 t-21.5 -9q-31 0 -88 24z" />
<glyph unicode="&#xda;" horiz-adv-x="1417" d="M193 1321l4 6q37 -6 104 -6q68 0 105 6l4 -6q-21 -143 -21 -410v-360q0 -28 0.5 -45.5t3.5 -56t8.5 -66.5t17.5 -67.5t28.5 -68t43.5 -59t60 -50t79.5 -32t102.5 -12.5q72 0 130 14.5t97 38.5t68 61.5t45 75.5t25.5 89.5t12.5 95t3 98.5v344q0 264 -20 410l4 6 q38 -6 71 -6q35 0 72 6l4 -6q-20 -136 -20 -410v-307q0 -115 -15 -206t-52.5 -171t-97.5 -133t-153.5 -83.5t-216.5 -30.5q-62 0 -121 11.5t-125.5 45.5t-116 87.5t-82 146t-32.5 212.5v428q0 264 -20 410zM586 1458q0 23 30 43l254 176q88 -40 127 -106l-295 -119 q-60 -25 -86 -25q-13 0 -21.5 9.5t-8.5 21.5z" />
<glyph unicode="&#xdb;" horiz-adv-x="1417" d="M193 1321l4 6q37 -6 104 -6q68 0 105 6l4 -6q-21 -143 -21 -410v-360q0 -28 0.5 -45.5t3.5 -56t8.5 -66.5t17.5 -67.5t28.5 -68t43.5 -59t60 -50t79.5 -32t102.5 -12.5q72 0 130 14.5t97 38.5t68 61.5t45 75.5t25.5 89.5t12.5 95t3 98.5v344q0 264 -20 410l4 6 q38 -6 71 -6q35 0 72 6l4 -6q-20 -136 -20 -410v-307q0 -115 -15 -206t-52.5 -171t-97.5 -133t-153.5 -83.5t-216.5 -30.5q-62 0 -121 11.5t-125.5 45.5t-116 87.5t-82 146t-32.5 212.5v428q0 264 -20 410zM528 1456q90 68 203 193h88q83 -101 207 -193l-33 -43 q-124 58 -217 127q-104 -76 -219 -127z" />
<glyph unicode="&#xdc;" horiz-adv-x="1417" d="M193 1321l4 6q37 -6 104 -6q68 0 105 6l4 -6q-21 -143 -21 -410v-360q0 -28 0.5 -45.5t3.5 -56t8.5 -66.5t17.5 -67.5t28.5 -68t43.5 -59t60 -50t79.5 -32t102.5 -12.5q72 0 130 14.5t97 38.5t68 61.5t45 75.5t25.5 89.5t12.5 95t3 98.5v344q0 264 -20 410l4 6 q38 -6 71 -6q35 0 72 6l4 -6q-20 -136 -20 -410v-307q0 -115 -15 -206t-52.5 -171t-97.5 -133t-153.5 -83.5t-216.5 -30.5q-62 0 -121 11.5t-125.5 45.5t-116 87.5t-82 146t-32.5 212.5v428q0 264 -20 410zM492 1452q0 38 27 65t65 27t65 -27t27 -65t-27 -65t-65 -27t-65 27 t-27 65zM848 1452q0 38 27 65t65 27t65 -27t27 -65t-27 -65t-65 -27t-65 27t-27 65z" />
<glyph unicode="&#xdd;" horiz-adv-x="1177" d="M33 1327q52 -6 117 -6q64 0 116 6q50 -97 103.5 -191.5t140 -242t115.5 -197.5q227 355 358 631q37 -6 86 -6q45 0 86 6q-64 -98 -162 -246t-140.5 -213t-91.5 -145.5t-79 -138.5q5 -476 14 -590q-38 6 -102 6t-102 -6q14 158 14 569q-63 107 -239 391.5t-234 372.5z M453 1460q0 23 30 43l254 176q88 -40 127 -106l-295 -119q-57 -24 -86 -24q-13 0 -21.5 9t-8.5 21z" />
<glyph unicode="&#xde;" horiz-adv-x="1116" d="M193 0q20 139 20 410v501q0 264 -20 410l4 6q37 -6 104 -6q68 0 105 6l4 -6q-14 -98 -19 -247q53 3 178 3q109 0 193 -25.5t133.5 -64.5t81 -91t42.5 -99t11 -95q0 -49 -15.5 -101t-52.5 -106.5t-91 -97t-139.5 -69.5t-190.5 -27q-106 0 -151 13q3 -196 20 -314l-4 -6 q-37 6 -105 6q-67 0 -104 -6zM389 394q31 -9 141 -9q48 0 88 7.5t80.5 28.5t68 55t45 92t17.5 134q0 291 -262 291q-32 0 -89.5 -6.5t-88.5 -14.5v-578z" />
<glyph unicode="&#xdf;" horiz-adv-x="1116" d="M76 805l14 53q3 11 12.5 16t34.5 5q45 0 55.5 18t10.5 80q0 97 25.5 176.5t66.5 129.5t94 84.5t105.5 48.5t103.5 14q76 0 136.5 -21.5t95.5 -56t53 -73t18 -77.5q0 -116 -46.5 -196t-156.5 -164v-4q139 -91 231.5 -220.5t92.5 -283.5q0 -168 -80.5 -261t-234.5 -93 q-66 0 -127 20.5t-86 36.5l-2 6q8 14 14 28.5t8.5 24t7.5 31t8 35.5l23 2q19 -35 66 -69t88 -34q64 0 99.5 52.5t35.5 185.5t-79 273t-208 239v27q104 80 144 153t40 185q0 172 -159 172q-52 0 -90 -15.5t-60.5 -52t-36 -69.5t-19 -95t-6.5 -99.5t-1 -111.5v-495 q0 -286 18 -410l-4 -6q-37 6 -96 6q-60 0 -97 -6l-4 6q19 132 19 410v350q0 18 -5.5 23t-19.5 5h-86q-8 0 -12.5 5t-3.5 12z" />
<glyph unicode="&#xe0;" horiz-adv-x="985" d="M92 201q0 104 91 183t249 114l191 43q14 5 14 24q0 66 -14 113.5t-33 71.5t-49 38t-51 16.5t-50 2.5q-67 0 -121 -47t-104 -127l-27 2l-34 137l6 8q37 31 67.5 52t96 44t137.5 23q51 0 95.5 -7.5t90.5 -30t78.5 -58t53 -96t20.5 -140.5q0 -7 -3 -141t-3 -168 q0 -129 34 -160q16 -15 60 -15q25 0 55 11l16 -51q-59 -63 -163 -63q-58 0 -100.5 30t-59.5 88h-8q-83 -70 -139 -94t-140 -24q-119 0 -187.5 55.5t-68.5 165.5zM233 1309l5 22q63 47 133 47q14 0 30 -4l144 -258q12 -24 12 -49q0 -8 -9.5 -15.5t-21.5 -7.5q-15 0 -59 41z M258 209q0 -50 43 -87.5t109 -37.5q82 0 188 80q29 22 29 53l8 244l-174 -47q-114 -31 -158.5 -81t-44.5 -124z" />
<glyph unicode="&#xe1;" horiz-adv-x="985" d="M92 201q0 104 91 183t249 114l191 43q14 5 14 24q0 66 -14 113.5t-33 71.5t-49 38t-51 16.5t-50 2.5q-67 0 -121 -47t-104 -127l-27 2l-34 137l6 8q37 31 67.5 52t96 44t137.5 23q51 0 95.5 -7.5t90.5 -30t78.5 -58t53 -96t20.5 -140.5q0 -7 -3 -141t-3 -168 q0 -129 34 -160q16 -15 60 -15q25 0 55 11l16 -51q-59 -63 -163 -63q-58 0 -100.5 30t-59.5 88h-8q-83 -70 -139 -94t-140 -24q-119 0 -187.5 55.5t-68.5 165.5zM258 209q0 -50 43 -87.5t109 -37.5q82 0 188 80q29 22 29 53l8 244l-174 -47q-114 -31 -158.5 -81t-44.5 -124z M322 1073q0 16 4 25.5t19 31.5l155 244q12 4 28 4q64 0 113 -47l6 -22l-235 -224q-38 -38 -62 -38q-11 0 -19.5 8t-8.5 18z" />
<glyph unicode="&#xe2;" horiz-adv-x="985" d="M92 201q0 104 91 183t249 114l191 43q14 5 14 24q0 66 -14 113.5t-33 71.5t-49 38t-51 16.5t-50 2.5q-67 0 -121 -47t-104 -127l-27 2l-34 137l6 8q37 31 67.5 52t96 44t137.5 23q51 0 95.5 -7.5t90.5 -30t78.5 -58t53 -96t20.5 -140.5q0 -7 -3 -141t-3 -168 q0 -129 34 -160q16 -15 60 -15q25 0 55 11l16 -51q-59 -63 -163 -63q-58 0 -100.5 30t-59.5 88h-8q-83 -70 -139 -94t-140 -24q-119 0 -187.5 55.5t-68.5 165.5zM199 1059q149 165 211 264h102q67 -109 207 -264l-43 -29q-142 105 -217 184q-92 -95 -219 -184zM258 209 q0 -50 43 -87.5t109 -37.5q82 0 188 80q29 22 29 53l8 244l-174 -47q-114 -31 -158.5 -81t-44.5 -124z" />
<glyph unicode="&#xe3;" horiz-adv-x="985" d="M92 201q0 104 91 183t249 114l191 43q14 5 14 24q0 66 -14 113.5t-33 71.5t-49 38t-51 16.5t-50 2.5q-67 0 -121 -47t-104 -127l-27 2l-34 137l6 8q37 31 67.5 52t96 44t137.5 23q51 0 95.5 -7.5t90.5 -30t78.5 -58t53 -96t20.5 -140.5q0 -7 -3 -141t-3 -168 q0 -129 34 -160q16 -15 60 -15q25 0 55 11l16 -51q-59 -63 -163 -63q-58 0 -100.5 30t-59.5 88h-8q-83 -70 -139 -94t-140 -24q-119 0 -187.5 55.5t-68.5 165.5zM162 1087q22 93 61 138t103 45q65 0 147 -58q59 -45 107 -45q35 0 58 22.5t44 84.5l49 -12q-38 -185 -178 -185 q-52 0 -131 53q-74 46 -111 46q-39 0 -62 -23.5t-38 -75.5zM258 209q0 -50 43 -87.5t109 -37.5q82 0 188 80q29 22 29 53l8 244l-174 -47q-114 -31 -158.5 -81t-44.5 -124z" />
<glyph unicode="&#xe4;" horiz-adv-x="985" d="M92 201q0 104 91 183t249 114l191 43q14 5 14 24q0 66 -14 113.5t-33 71.5t-49 38t-51 16.5t-50 2.5q-67 0 -121 -47t-104 -127l-27 2l-34 137l6 8q37 31 67.5 52t96 44t137.5 23q51 0 95.5 -7.5t90.5 -30t78.5 -58t53 -96t20.5 -140.5q0 -7 -3 -141t-3 -168 q0 -129 34 -160q16 -15 60 -15q25 0 55 11l16 -51q-59 -63 -163 -63q-58 0 -100.5 30t-59.5 88h-8q-83 -70 -139 -94t-140 -24q-119 0 -187.5 55.5t-68.5 165.5zM186 1176q0 40 28.5 69t68.5 29t68 -29t28 -69t-28 -68.5t-68 -28.5t-68.5 28.5t-28.5 68.5zM258 209 q0 -50 43 -87.5t109 -37.5q82 0 188 80q29 22 29 53l8 244l-174 -47q-114 -31 -158.5 -81t-44.5 -124zM532 1176q0 40 28.5 69t68.5 29t68 -29t28 -69t-28 -68.5t-68 -28.5t-68.5 28.5t-28.5 68.5z" />
<glyph unicode="&#xe5;" horiz-adv-x="985" d="M92 201q0 104 91 183t249 114l191 43q14 5 14 24q0 66 -14 113.5t-33 71.5t-49 38t-51 16.5t-50 2.5q-67 0 -121 -47t-104 -127l-27 2l-34 137l6 8q37 31 67.5 52t96 44t137.5 23q51 0 95.5 -7.5t90.5 -30t78.5 -58t53 -96t20.5 -140.5q0 -7 -3 -141t-3 -168 q0 -129 34 -160q16 -15 60 -15q25 0 55 11l16 -51q-59 -63 -163 -63q-58 0 -100.5 30t-59.5 88h-8q-83 -70 -139 -94t-140 -24q-119 0 -187.5 55.5t-68.5 165.5zM252 1192q0 70 53.5 120t124.5 50q72 0 125 -49.5t53 -120.5q0 -69 -52.5 -119.5t-125.5 -50.5 q-71 0 -124.5 50t-53.5 120zM258 209q0 -50 43 -87.5t109 -37.5q82 0 188 80q29 22 29 53l8 244l-174 -47q-114 -31 -158.5 -81t-44.5 -124zM328 1192q0 -45 28.5 -80t73.5 -35t73.5 35t28.5 80q0 48 -28.5 81.5t-73.5 33.5q-46 0 -74 -33.5t-28 -81.5z" />
<glyph unicode="&#xe6;" horiz-adv-x="1406" d="M80 207q0 130 135 213.5t391 101.5q-2 151 -43 218t-149 67q-64 0 -126 -53t-106 -129l-26 2l-33 137l6 8q151 127 303 127q28 0 56 -3.5t72.5 -16t85.5 -44t67 -79.5q51 69 127 106t164 37q66 0 122 -21t91.5 -52.5t60 -69t35 -69t10.5 -54.5q0 -103 -53 -148 q-26 -14 -74 -21t-98 -8t-149.5 -3.5t-182.5 -6.5q0 -163 69 -259.5t185 -96.5q134 0 252 139l41 -57q-45 -84 -133.5 -138t-188.5 -54q-53 0 -98.5 11t-73 23t-56 36t-38.5 35.5t-29 35.5q-147 -141 -307 -141q-157 0 -233 59.5t-76 167.5zM248 217q0 -135 145 -135 q59 0 114.5 33t76.5 90q22 63 22 235q-191 -18 -274.5 -77.5t-83.5 -145.5zM768 528q53 3 111 4t91.5 1t68.5 1.5t52.5 6t33 15t21 27.5t5.5 44q0 59 -41.5 119.5t-108.5 60.5q-97 0 -159 -74.5t-74 -204.5z" />
<glyph unicode="&#xe7;" horiz-adv-x="878" d="M78 446q0 101 38 188t100 144t140 89t158 32q75 0 149.5 -16t122.5 -41l5 -6l-48 -168l-26 -2q-88 151 -205 151q-106 0 -180 -98.5t-74 -261.5q0 -175 75 -275t191 -100q62 0 113 18.5t106 67.5h9l39 -43q-106 -136 -276 -145l-42 -113q24 6 53 6q63 0 104.5 -35 t41.5 -92q0 -66 -62.5 -109t-156.5 -43q-74 0 -152 35q0 33 21 54q72 -26 101 -28q8 -1 17 -1q47 0 76 21.5t29 60.5q0 71 -68 71q-52 0 -92 -12l-12 12l72 175q-169 15 -268 139.5t-99 324.5z" />
<glyph unicode="&#xe8;" horiz-adv-x="927" d="M70 428q0 109 35.5 200t95 149t134 90t154.5 32q78 0 140.5 -24t101.5 -62.5t65.5 -90t37 -103.5t10.5 -107q0 -35 -37 -35h-557q0 -181 49 -260q38 -62 99.5 -89.5t123.5 -27.5q177 0 281 113l41 -51q-60 -82 -155 -132t-202 -50q-103 0 -187.5 35.5t-137.5 99.5 q-92 109 -92 313zM256 559h377q29 0 29 29q0 108 -53 168.5t-120 60.5q-22 0 -46 -6t-54 -23.5t-55 -45t-46.5 -75t-31.5 -108.5zM262 1309l4 22q63 47 133 47q15 0 31 -4l143 -258q13 -26 13 -49q0 -8 -9.5 -15.5t-21.5 -7.5q-15 0 -59 41z" />
<glyph unicode="&#xe9;" horiz-adv-x="927" d="M70 428q0 109 35.5 200t95 149t134 90t154.5 32q78 0 140.5 -24t101.5 -62.5t65.5 -90t37 -103.5t10.5 -107q0 -35 -37 -35h-557q0 -181 49 -260q38 -62 99.5 -89.5t123.5 -27.5q177 0 281 113l41 -51q-60 -82 -155 -132t-202 -50q-103 0 -187.5 35.5t-137.5 99.5 q-92 109 -92 313zM256 559h377q29 0 29 29q0 108 -53 168.5t-120 60.5q-22 0 -46 -6t-54 -23.5t-55 -45t-46.5 -75t-31.5 -108.5zM375 1073q0 16 4 25.5t19 31.5l155 244q12 4 29 4q63 0 112 -47l6 -22l-235 -224q-38 -38 -62 -38q-11 0 -19.5 8t-8.5 18z" />
<glyph unicode="&#xea;" horiz-adv-x="927" d="M70 428q0 109 35.5 200t95 149t134 90t154.5 32q78 0 140.5 -24t101.5 -62.5t65.5 -90t37 -103.5t10.5 -107q0 -35 -37 -35h-557q0 -181 49 -260q38 -62 99.5 -89.5t123.5 -27.5q177 0 281 113l41 -51q-60 -82 -155 -132t-202 -50q-103 0 -187.5 35.5t-137.5 99.5 q-92 109 -92 313zM215 1059q149 165 211 264h102q67 -109 207 -264l-43 -29q-142 105 -217 184q-92 -95 -219 -184zM256 559h377q29 0 29 29q0 108 -53 168.5t-120 60.5q-22 0 -46 -6t-54 -23.5t-55 -45t-46.5 -75t-31.5 -108.5z" />
<glyph unicode="&#xeb;" horiz-adv-x="927" d="M70 428q0 109 35.5 200t95 149t134 90t154.5 32q78 0 140.5 -24t101.5 -62.5t65.5 -90t37 -103.5t10.5 -107q0 -35 -37 -35h-557q0 -181 49 -260q38 -62 99.5 -89.5t123.5 -27.5q177 0 281 113l41 -51q-60 -82 -155 -132t-202 -50q-103 0 -187.5 35.5t-137.5 99.5 q-92 109 -92 313zM203 1176q0 40 28 69t68 29t68 -29t28 -69t-28 -68.5t-68 -28.5t-68 28.5t-28 68.5zM256 559h377q29 0 29 29q0 108 -53 168.5t-120 60.5q-22 0 -46 -6t-54 -23.5t-55 -45t-46.5 -75t-31.5 -108.5zM549 1176q0 40 28 69t68 29t68 -29t28 -69t-28 -68.5 t-68 -28.5t-68 28.5t-28 68.5z" />
<glyph unicode="&#xec;" horiz-adv-x="532" d="M57 1309l4 22q63 47 134 47q14 0 30 -4l144 -258q12 -24 12 -49q0 -8 -9.5 -15.5t-21.5 -7.5q-15 0 -59 41zM166 0q18 133 18 369v112q0 276 -18 398l4 6q31 -2 88 -2t90 4q12 0 15.5 -4t3.5 -17q-19 -183 -19 -352v-145q0 -222 19 -369l-5 -6q-38 6 -96 6t-96 -6z" />
<glyph unicode="&#xed;" horiz-adv-x="532" d="M166 0q18 133 18 369v112q0 276 -18 398l4 6q31 -2 88 -2t90 4q12 0 15.5 -4t3.5 -17q-19 -183 -19 -352v-145q0 -222 19 -369l-5 -6q-38 6 -96 6t-96 -6zM178 1073q0 4 0.5 8t1 6.5t2 6.5t2 6t3.5 7t4 6.5t5.5 8t5.5 8.5l154 244q12 4 29 4q64 0 113 -47l6 -22 l-236 -224q-38 -38 -61 -38q-11 0 -20 8t-9 18z" />
<glyph unicode="&#xee;" horiz-adv-x="532" d="M16 1059q149 165 211 264h103q67 -109 207 -264l-43 -29q-145 107 -218 184q-92 -95 -219 -184zM166 0q18 133 18 369v112q0 276 -18 398l4 6q31 -2 88 -2t90 4q12 0 15.5 -4t3.5 -17q-19 -183 -19 -352v-145q0 -222 19 -369l-5 -6q-38 6 -96 6t-96 -6z" />
<glyph unicode="&#xef;" horiz-adv-x="532" d="M10 1176q0 40 28 69t68 29t68.5 -29t28.5 -69t-28.5 -68.5t-68.5 -28.5t-68 28.5t-28 68.5zM166 0q18 133 18 369v112q0 276 -18 398l4 6q31 -2 88 -2t90 4q12 0 15.5 -4t3.5 -17q-19 -183 -19 -352v-145q0 -222 19 -369l-5 -6q-38 6 -96 6t-96 -6zM356 1176 q0 40 28.5 69t68.5 29t68 -29t28 -69t-28 -68.5t-68 -28.5t-68.5 28.5t-28.5 68.5z" />
<glyph unicode="&#xf0;" horiz-adv-x="1013" d="M70 426q0 101 30.5 184.5t78 135.5t108 88t118 50.5t111.5 14.5q84 0 158 -29q-61 148 -185 301l-223 -149l-45 65l215 146l-33 33q-43 45 -145 118l39 46q103 -56 217 -146l217 146l45 -66l-198 -133l36 -37q320 -320 320 -709q0 -125 -38 -224t-103 -159t-144.5 -91 t-167.5 -31q-92 0 -171 39.5t-130.5 103.5t-80.5 143t-29 160zM254 461q0 -173 76 -285.5t186 -112.5q32 0 62 8.5t63 35t57 68t40 114.5t16 168q0 156 -33 272q-69 86 -209 86q-74 0 -127 -32.5t-80 -87t-39 -112t-12 -122.5z" />
<glyph unicode="&#xf1;" horiz-adv-x="1103" d="M152 0q18 125 18 369v112q0 284 -18 398l4 6q87 -9 166 6q12 0 12 -21v-149l4 -6q46 55 98 93.5t100 57t85 26t71 7.5q135 0 194.5 -80t59.5 -244q0 -33 -2 -103t-2 -103q0 -230 19 -369l-5 -6q-38 6 -96 6t-96 -6l-4 6q18 132 18 369v200q0 121 -33 164t-114 43 q-63 0 -144 -41.5t-153 -126.5v-239q0 -237 18 -369l-4 -6q-38 6 -96 6t-96 -6zM283 1087q22 94 60.5 138.5t102.5 44.5q66 0 148 -58q59 -45 106 -45q36 0 59 22.5t44 84.5l49 -12q-38 -185 -178 -185q-52 0 -131 53q-74 46 -111 46q-39 0 -62 -23.5t-38 -75.5z" />
<glyph unicode="&#xf2;" horiz-adv-x="1024" d="M78 420q0 218 120.5 348.5t321.5 130.5q204 0 315 -124t111 -337q0 -204 -117 -331t-317 -127q-199 0 -316.5 125t-117.5 315zM258 455q0 -52 7 -102t26.5 -104.5t49 -95t78.5 -66.5t111 -26q102 0 169 96.5t67 243.5q0 101 -10.5 171t-38 128.5t-80 87.5t-131.5 29 q-56 0 -99.5 -21t-71 -55t-45.5 -82t-25 -98t-7 -106zM311 1309l4 22q63 47 134 47q14 0 30 -4l144 -258q12 -24 12 -49q0 -8 -9.5 -15.5t-21.5 -7.5q-15 0 -59 41z" />
<glyph unicode="&#xf3;" horiz-adv-x="1024" d="M78 420q0 218 120.5 348.5t321.5 130.5q204 0 315 -124t111 -337q0 -204 -117 -331t-317 -127q-199 0 -316.5 125t-117.5 315zM258 455q0 -52 7 -102t26.5 -104.5t49 -95t78.5 -66.5t111 -26q102 0 169 96.5t67 243.5q0 101 -10.5 171t-38 128.5t-80 87.5t-131.5 29 q-56 0 -99.5 -21t-71 -55t-45.5 -82t-25 -98t-7 -106zM395 1073q0 4 0.5 8t1 6.5t2 6.5t2 6t3.5 7t4 6.5t5.5 8t5.5 8.5l154 244q12 4 29 4q64 0 113 -47l6 -22l-236 -224q-38 -38 -61 -38q-11 0 -20 8t-9 18z" />
<glyph unicode="&#xf4;" horiz-adv-x="1024" d="M78 420q0 218 120.5 348.5t321.5 130.5q204 0 315 -124t111 -337q0 -204 -117 -331t-317 -127q-199 0 -316.5 125t-117.5 315zM254 1059q149 165 211 264h102q67 -109 207 -264l-43 -29q-142 105 -217 184q-92 -95 -219 -184zM258 455q0 -52 7 -102t26.5 -104.5t49 -95 t78.5 -66.5t111 -26q102 0 169 96.5t67 243.5q0 101 -10.5 171t-38 128.5t-80 87.5t-131.5 29q-56 0 -99.5 -21t-71 -55t-45.5 -82t-25 -98t-7 -106z" />
<glyph unicode="&#xf5;" horiz-adv-x="1024" d="M78 420q0 218 120.5 348.5t321.5 130.5q204 0 315 -124t111 -337q0 -204 -117 -331t-317 -127q-199 0 -316.5 125t-117.5 315zM225 1087q22 93 61 138t103 45q66 0 148 -58q59 -45 106 -45q35 0 58 22.5t44 84.5l50 -12q-38 -185 -179 -185q-52 0 -131 53q-74 46 -110 46 q-39 0 -62.5 -23.5t-38.5 -75.5zM258 455q0 -52 7 -102t26.5 -104.5t49 -95t78.5 -66.5t111 -26q102 0 169 96.5t67 243.5q0 101 -10.5 171t-38 128.5t-80 87.5t-131.5 29q-56 0 -99.5 -21t-71 -55t-45.5 -82t-25 -98t-7 -106z" />
<glyph unicode="&#xf6;" horiz-adv-x="1024" d="M78 420q0 218 120.5 348.5t321.5 130.5q204 0 315 -124t111 -337q0 -204 -117 -331t-317 -127q-199 0 -316.5 125t-117.5 315zM229 1176q0 40 28.5 69t68.5 29t68 -29t28 -69t-28 -68.5t-68 -28.5t-68.5 28.5t-28.5 68.5zM258 455q0 -52 7 -102t26.5 -104.5t49 -95 t78.5 -66.5t111 -26q102 0 169 96.5t67 243.5q0 101 -10.5 171t-38 128.5t-80 87.5t-131.5 29q-56 0 -99.5 -21t-71 -55t-45.5 -82t-25 -98t-7 -106zM575 1176q0 40 28.5 69t68.5 29t68 -29t28 -69t-28 -68.5t-68 -28.5t-68.5 28.5t-28.5 68.5z" />
<glyph unicode="&#xf7;" horiz-adv-x="1079" d="M135 426v100h809v-100h-809zM447 203v6q12 34 33.5 56t59.5 37h7q38 -14 59 -35t33 -58v-6q-14 -41 -34.5 -62.5t-57.5 -30.5h-7q-41 9 -61.5 29.5t-31.5 63.5zM447 751v7q12 34 33.5 56t59.5 37h7q38 -14 59 -35t33 -58v-7q-13 -41 -34 -62t-58 -30h-7q-41 9 -61.5 29 t-31.5 63z" />
<glyph unicode="&#xf8;" horiz-adv-x="1024" d="M78 420q0 218 120.5 348.5t321.5 130.5q158 0 261 -75l87 106l64 -47l-93 -113q107 -122 107 -332q0 -204 -117 -331t-317 -127q-150 0 -259 76l-93 -113l-62 53l93 113q-113 121 -113 311zM258 455q0 -123 38 -219l406 492q-61 89 -196 89q-56 0 -99.5 -21t-71 -55 t-45.5 -82t-25 -98t-7 -106zM338 159q71 -98 192 -98q102 0 169 96.5t67 243.5q0 157 -27 247z" />
<glyph unicode="&#xf9;" horiz-adv-x="1099" d="M152 879l4 6q38 -6 96 -6t96 6l4 -6q-18 -123 -18 -369v-203q0 -68 11 -113t32 -65.5t42 -27.5t52 -7q71 0 151 65t130 150v201q0 230 -19 369l4 6q37 -6 97 -6q58 0 96 6l4 -6q-19 -129 -19 -369v-117q0 -201 35 -393l-4 -6q-40 6 -91 6q-27 0 -81 -6q-8 0 -8 6l-10 182 l-8 6q-57 -87 -139 -147.5t-171 -60.5q-73 0 -127 24t-83.5 65.5t-43.5 90t-14 104.5v246q0 237 -18 369zM299 1309l4 22q63 47 133 47q15 0 31 -4l143 -258q13 -26 13 -49q0 -8 -9.5 -15.5t-21.5 -7.5q-16 0 -60 41z" />
<glyph unicode="&#xfa;" horiz-adv-x="1099" d="M152 879l4 6q38 -6 96 -6t96 6l4 -6q-18 -123 -18 -369v-203q0 -68 11 -113t32 -65.5t42 -27.5t52 -7q71 0 151 65t130 150v201q0 230 -19 369l4 6q37 -6 97 -6q58 0 96 6l4 -6q-19 -129 -19 -369v-117q0 -201 35 -393l-4 -6q-40 6 -91 6q-27 0 -81 -6q-8 0 -8 6l-10 182 l-8 6q-57 -87 -139 -147.5t-171 -60.5q-73 0 -127 24t-83.5 65.5t-43.5 90t-14 104.5v246q0 237 -18 369zM449 1073q0 16 4 25.5t19 31.5l155 244q12 4 28 4q64 0 113 -47l6 -22l-235 -224q-38 -38 -62 -38q-11 0 -19.5 8t-8.5 18z" />
<glyph unicode="&#xfb;" horiz-adv-x="1099" d="M152 879l4 6q38 -6 96 -6t96 6l4 -6q-18 -123 -18 -369v-203q0 -68 11 -113t32 -65.5t42 -27.5t52 -7q71 0 151 65t130 150v201q0 230 -19 369l4 6q37 -6 97 -6q58 0 96 6l4 -6q-19 -129 -19 -369v-117q0 -201 35 -393l-4 -6q-40 6 -91 6q-27 0 -81 -6q-8 0 -8 6l-10 182 l-8 6q-57 -87 -139 -147.5t-171 -60.5q-73 0 -127 24t-83.5 65.5t-43.5 90t-14 104.5v246q0 237 -18 369zM262 1059q149 165 211 264h102q67 -109 207 -264l-43 -29q-142 105 -217 184q-92 -95 -219 -184z" />
<glyph unicode="&#xfc;" horiz-adv-x="1099" d="M152 879l4 6q38 -6 96 -6t96 6l4 -6q-18 -123 -18 -369v-203q0 -68 11 -113t32 -65.5t42 -27.5t52 -7q71 0 151 65t130 150v201q0 230 -19 369l4 6q37 -6 97 -6q58 0 96 6l4 -6q-19 -129 -19 -369v-117q0 -201 35 -393l-4 -6q-40 6 -91 6q-27 0 -81 -6q-8 0 -8 6l-10 182 l-8 6q-57 -87 -139 -147.5t-171 -60.5q-73 0 -127 24t-83.5 65.5t-43.5 90t-14 104.5v246q0 237 -18 369zM270 1176q0 40 28.5 69t68.5 29t68 -29t28 -69t-28 -68.5t-68 -28.5t-68.5 28.5t-28.5 68.5zM616 1176q0 40 28.5 69t68.5 29t68 -29t28 -69t-28 -68.5t-68 -28.5 t-68.5 28.5t-28.5 68.5z" />
<glyph unicode="&#xfd;" horiz-adv-x="1036" d="M57 885q29 -6 107 -6q73 0 100 6q11 -34 24 -71.5t23.5 -67t27 -73t25.5 -66.5t29 -73t26.5 -67t30 -74t28 -68t31 -75t29.5 -71h4q133 283 269 706q20 -6 80 -6q68 0 88 6q-85 -171 -314 -687.5t-280 -682.5q-33 10 -100 10q-39 0 -72 -10q145 240 242 465 q-25 68 -84.5 205t-108 245t-122.5 271t-83 184zM451 1073q0 16 4 25.5t19 31.5l155 244q12 4 28 4q64 0 113 -47l6 -22l-235 -224q-38 -38 -62 -38q-11 0 -19.5 8t-8.5 18z" />
<glyph unicode="&#xfe;" horiz-adv-x="1054" d="M150 -475q20 129 20 409v1053q0 276 -20 385l4 6q29 2 58.5 9t42 11t45.5 17.5t36 14.5q18 0 18 -21q-20 -157 -20 -385v-221l-2 -68q24 39 56.5 72t91 62.5t124.5 29.5q97 0 183 -59.5t136 -156t50 -202.5q0 -111 -38 -206.5t-101 -159t-145 -99.5t-171 -36 q-102 0 -184 45v-91q0 -271 20 -409l-4 -6q-28 6 -98 6q-32 0 -57 -1.5t-34 -3.5l-9 -1zM334 147q73 -88 174 -88q78 0 133 31.5t83 86.5t40 115.5t12 133.5q0 85 -15 152t-38 107t-54 65.5t-59.5 35t-58.5 9.5q-58 0 -121.5 -45.5t-95.5 -122.5v-480z" />
<glyph unicode="&#xff;" horiz-adv-x="1036" d="M57 885q29 -6 107 -6q73 0 100 6q11 -34 24 -71.5t23.5 -67t27 -73t25.5 -66.5t29 -73t26.5 -67t30 -74t28 -68t31 -75t29.5 -71h4q133 283 269 706q20 -6 80 -6q68 0 88 6q-85 -171 -314 -687.5t-280 -682.5q-33 10 -100 10q-39 0 -72 -10q145 240 242 465 q-25 68 -84.5 205t-108 245t-122.5 271t-83 184zM270 1176q0 40 28.5 69t68.5 29t68 -29t28 -69t-28 -68.5t-68 -28.5t-68.5 28.5t-28.5 68.5zM616 1176q0 40 28.5 69t68.5 29t68 -29t28 -69t-28 -68.5t-68 -28.5t-68.5 28.5t-28.5 68.5z" />
<glyph unicode="&#x152;" horiz-adv-x="1716" d="M86 651q0 186 71.5 337.5t211.5 243t325 91.5q145 -2 238 -2h538q74 0 123 6l4 -6q-4 -58 -4 -64q0 -21 4 -53l-4 -8q-284 25 -557 25q-16 -56 -16 -310v-168q203 0 457 21l6 -6q-6 -27 -6 -58q0 -30 6 -57l-6 -6q-201 20 -457 20v-247q0 -243 16 -299q122 0 266.5 6 t227.5 12l84 6l4 -8q-4 -32 -4 -68q0 -1 4 -59l-4 -6q-50 6 -123 6h-559l-215 -4q-188 1 -333 88t-221.5 235t-76.5 332zM297 670q0 -153 35 -270.5t94.5 -186.5t132 -103t154.5 -34h26q60 0 82.5 19t22.5 63v1007q0 46 -22.5 61t-82.5 15h-71q-62 0 -115 -17t-101 -58.5 t-82 -105t-53.5 -163t-19.5 -227.5z" />
<glyph unicode="&#x153;" horiz-adv-x="1587" d="M70 422q0 116 36.5 208.5t98 150t139 88t164.5 30.5q74 0 131 -14.5t96 -42.5t63.5 -57t49.5 -70q62 87 150 135.5t178 48.5q97 0 167.5 -32.5t108.5 -87.5t55 -116.5t17 -130.5q0 -34 -37 -34h-551q0 -88 19.5 -158.5t50 -114t70.5 -73t78 -41t75 -11.5q162 0 268 115 l41 -53q-61 -83 -152 -132.5t-198 -49.5q-122 0 -213 45.5t-146 126.5q-40 -58 -78.5 -92.5t-105 -57t-160.5 -22.5q-191 0 -303 124t-112 318zM254 485q0 -88 15 -162.5t45 -134t81.5 -93.5t118.5 -34q41 0 78.5 14.5t75.5 49.5t61 108t23 175q0 90 -17 163t-43.5 118 t-60.5 75.5t-65 42.5t-60 12q-62 0 -112 -32t-79.5 -82.5t-45 -107.5t-15.5 -112zM942 588h371q28 0 28 28q0 105 -49.5 153t-115.5 48q-19 0 -39.5 -3t-53 -16.5t-58 -36.5t-49.5 -68t-34 -105z" />
<glyph unicode="&#x178;" horiz-adv-x="1191" d="M33 1327q52 -6 117 -6q64 0 116 6q50 -97 103.5 -191.5t140 -242t115.5 -197.5q227 355 358 631q37 -6 86 -6q45 0 86 6q-64 -98 -162 -246t-140.5 -213t-91.5 -145.5t-79 -138.5q5 -476 14 -590q-38 6 -102 6t-102 -6q14 158 14 569q-63 107 -239 391.5t-234 372.5z M358 1536q0 40 28.5 69t68.5 29t68 -29t28 -69t-28 -68t-68 -28t-68.5 28t-28.5 68zM705 1536q0 40 28 69t68 29t68 -29t28 -69t-28 -68t-68 -28t-68 28t-28 68z" />
<glyph unicode="&#x2c6;" horiz-adv-x="714" d="M102 1104q149 165 211 264h103q67 -109 207 -264l-43 -29q-142 105 -218 185q-95 -98 -219 -185z" />
<glyph unicode="&#x2dc;" horiz-adv-x="598" d="M10 1186q22 93 60.5 137.5t103.5 44.5q67 0 148 -57q59 -45 106 -45q36 0 58.5 22t43.5 84l50 -12q-37 -184 -179 -184q-52 0 -131 53q-72 45 -110 45q-39 0 -62.5 -23t-38.5 -75z" />
<glyph unicode="&#x2000;" horiz-adv-x="839" />
<glyph unicode="&#x2001;" horiz-adv-x="1679" />
<glyph unicode="&#x2002;" horiz-adv-x="839" />
<glyph unicode="&#x2003;" horiz-adv-x="1679" />
<glyph unicode="&#x2004;" horiz-adv-x="559" />
<glyph unicode="&#x2005;" horiz-adv-x="419" />
<glyph unicode="&#x2006;" horiz-adv-x="279" />
<glyph unicode="&#x2007;" horiz-adv-x="279" />
<glyph unicode="&#x2008;" horiz-adv-x="209" />
<glyph unicode="&#x2009;" horiz-adv-x="335" />
<glyph unicode="&#x200a;" horiz-adv-x="93" />
<glyph unicode="&#x2010;" horiz-adv-x="681" d="M68 518q0 25 16.5 50.5t34.5 25.5h469q28 0 28 -37q0 -19 -18 -46.5t-37 -27.5h-463q-13 0 -21.5 10.5t-8.5 24.5z" />
<glyph unicode="&#x2011;" horiz-adv-x="681" d="M68 518q0 25 16.5 50.5t34.5 25.5h469q28 0 28 -37q0 -19 -18 -46.5t-37 -27.5h-463q-13 0 -21.5 10.5t-8.5 24.5z" />
<glyph unicode="&#x2012;" horiz-adv-x="681" d="M68 518q0 25 16.5 50.5t34.5 25.5h469q28 0 28 -37q0 -19 -18 -46.5t-37 -27.5h-463q-13 0 -21.5 10.5t-8.5 24.5z" />
<glyph unicode="&#x2013;" horiz-adv-x="1093" d="M92 522q0 20 17.5 43t35.5 23h828q28 0 28 -35q0 -20 -17 -43t-36 -23h-827q-29 0 -29 35z" />
<glyph unicode="&#x2014;" horiz-adv-x="1519" d="M59 487v101h1401v-101h-1401z" />
<glyph unicode="&#x2018;" horiz-adv-x="548" d="M150 1239q0 27 4 52t9 44.5t17.5 39t20.5 32.5t27.5 29.5t29 24.5t33.5 23.5t34 21.5t37 22q27 -23 27 -43q-81 -55 -120.5 -100t-39.5 -93q0 -23 10.5 -35.5t21.5 -15t28 -2.5q52 -11 74.5 -29t35.5 -67v-8q-15 -41 -39.5 -67t-70.5 -44h-8q-62 23 -96.5 72.5 t-34.5 142.5z" />
<glyph unicode="&#x2019;" horiz-adv-x="548" d="M150 1325v8q15 41 39.5 67t70.5 44h8q62 -23 96.5 -72.5t34.5 -142.5q0 -35 -7 -66t-15 -53t-28 -45.5t-32 -36t-41 -32.5t-42 -28t-48 -28q-26 22 -26 43q81 55 120 100t39 93q0 18 -5 29.5t-15 16t-18.5 6t-20.5 1.5q-52 11 -74.5 29t-35.5 67z" />
<glyph unicode="&#x201a;" horiz-adv-x="548" d="M150 90v8q15 41 39.5 67t70.5 44h8q62 -23 96.5 -72.5t34.5 -142.5q0 -35 -7 -66t-15 -53t-28 -45.5t-32 -36t-41 -32.5t-42 -28t-48 -28q-26 22 -26 43q81 55 120 100t39 93q0 18 -5 29.5t-15 16t-18.5 6t-20.5 1.5q-52 11 -74.5 29t-35.5 67z" />
<glyph unicode="&#x201c;" horiz-adv-x="788" d="M98 1241q0 35 7 66t15 53t28 45.5t32 36t41 32.5t42 28t48 28q27 -23 27 -43q-81 -55 -120.5 -100t-39.5 -93q0 -23 10.5 -35.5t21.5 -15t28 -2.5q52 -11 74.5 -29t35.5 -67v-8q-15 -41 -39.5 -67t-70.5 -44h-9q-62 23 -96.5 72.5t-34.5 142.5zM440 1241q0 35 7 66t15 53 t28 45.5t32 36t41 32.5t42 28t48 28q27 -23 27 -43q-81 -55 -120.5 -100t-39.5 -93q0 -23 10.5 -35.5t21.5 -15t28 -2.5q52 -11 74.5 -29t35.5 -67v-8q-15 -41 -39.5 -67t-70.5 -44h-9q-62 23 -96.5 72.5t-34.5 142.5z" />
<glyph unicode="&#x201d;" horiz-adv-x="788" d="M100 1325v8q14 41 39.5 67t71.5 44h8q62 -23 96.5 -72.5t34.5 -142.5q0 -35 -7 -66t-15 -53t-28 -45.5t-32 -36t-41 -32.5t-42 -28t-48 -28q-26 22 -26 43q81 55 120 100t39 93q0 18 -5 29.5t-15 16t-18.5 6t-20.5 1.5q-52 11 -75 29t-36 67zM442 1325v8q14 41 39.5 67 t71.5 44h8q62 -23 96.5 -72.5t34.5 -142.5q0 -35 -7 -66t-15 -53t-28 -45.5t-32 -36t-41 -32.5t-42 -28t-48 -28q-26 22 -26 43q81 55 120 100t39 93q0 18 -5 29.5t-15 16t-18.5 6t-20.5 1.5q-52 11 -75 29t-36 67z" />
<glyph unicode="&#x201e;" horiz-adv-x="788" d="M100 88v8q14 41 39.5 67t71.5 44h8q62 -23 96.5 -72.5t34.5 -142.5q0 -35 -7 -66t-15 -53t-28 -45.5t-32 -36t-41 -32.5t-42 -28t-48 -28q-26 22 -26 43q81 55 120 100t39 93q0 18 -5 29.5t-15 16t-18.5 6t-20.5 1.5q-52 11 -75 29t-36 67zM442 88v8q14 41 39.5 67 t71.5 44h8q62 -23 96.5 -72.5t34.5 -142.5q0 -35 -7 -66t-15 -53t-28 -45.5t-32 -36t-41 -32.5t-42 -28t-48 -28q-26 22 -26 43q81 55 120 100t39 93q0 18 -5 29.5t-15 16t-18.5 6t-20.5 1.5q-52 11 -75 29t-36 67z" />
<glyph unicode="&#x2022;" horiz-adv-x="718" d="M127 471q0 97 68 165.5t165 68.5t165.5 -68.5t68.5 -165.5t-68.5 -165t-165.5 -68t-165 68t-68 165z" />
<glyph unicode="&#x202f;" horiz-adv-x="335" />
<glyph unicode="&#x2039;" horiz-adv-x="743" d="M152 428v25q162 142 378 374q17 -2 31.5 -13t18.5 -26q-133 -204 -261 -348q128 -144 261 -348q-4 -15 -18.5 -26t-31.5 -13q-221 237 -378 375z" />
<glyph unicode="&#x203a;" horiz-adv-x="743" d="M164 92q136 208 260 348q-124 140 -260 348q4 15 18 26t31 13q211 -227 379 -374v-25q-162 -142 -379 -375q-17 2 -31 13t-18 26z" />
<glyph unicode="&#x205f;" horiz-adv-x="419" />
<glyph unicode="&#x20ac;" d="M0 487v21l43 55h72v39q0 26 2 72h-86l2 22l43 54h49q32 232 159 365.5t318 133.5q61 0 114.5 -9.5t86.5 -23t57.5 -27t34.5 -23.5l10 -9l4 -8q-6 -24 -16 -58.5t-13 -46.5t-6.5 -38.5t-5.5 -65.5l-22 -2q-30 71 -51 108.5t-52 66.5t-70.5 38.5t-101.5 9.5 q-94 0 -171 -102t-96 -309h484l-38 -76h-450q0 -7 -0.5 -21t-0.5 -22q0 -46 1 -68h413l-39 -76h-368q9 -87 29.5 -159t54 -129.5t84.5 -90t116 -32.5q57 0 91 7.5t61 33.5t46 58.5t52 98.5q5 11 8 17l22 -2q3 -28 5 -45.5t6 -35.5t6.5 -27.5t10 -37.5t13.5 -49 q-2 -4 -14.5 -14.5t-40 -29t-61 -34.5t-84 -27.5t-103.5 -11.5q-116 0 -205.5 37.5t-147.5 107t-91 160.5t-44 205h-120z" />
<glyph unicode="&#x2122;" horiz-adv-x="1628" d="M27 1190l39 184l49 -16q-1 -2 -2 -8t-2 -10.5t-2 -4.5h477q-1 0 -2 4.5t-2 10.5t-2 8l51 16l39 -186l-47 -10q-18 68 -33 86t-49 18h-88q-17 0 -23 -8.5t-6 -34.5v-541q0 -25 13.5 -37t47.5 -12h29q10 0 10 -10v-27l-2 -2q-129 2 -170 2l-168 -2l-2 2v27q0 10 11 10h28 q34 0 49 11t15 38v543q0 24 -6.5 32.5t-22.5 8.5h-104q-33 0 -48 -18.5t-32 -85.5zM684 612v17q0 14 37 14h29q13 0 22 62q6 85 20.5 269.5t20.5 274.5v11q0 34 -18 34h-33q-35 3 -35 13v16l10 12h183l229 -542q205 507 219 542h168l6 -12v-16q0 -13 -35 -13h-30 q-19 0 -19 -32v-13l47 -544q8 -62 25 -62h29q38 0 38 -14v-17l-12 -12q-90 4 -133 4l-135 -4l-12 12v17q0 14 34 14h29q12 0 12 47v15l-34 403l-203 -498q-7 -20 -33 -20q-24 0 -35 20q-123 293 -205 488q-16 -263 -28 -396v-12q0 -47 14 -47h31q35 0 35 -14v-17l-7 -12 q-79 4 -124 4l-97 -4z" />
<glyph unicode="&#xe000;" horiz-adv-x="880" d="M0 0v881h881v-881h-881z" />
<glyph unicode="&#xfb01;" horiz-adv-x="1163" d="M39 799q27 42 45 84q27 -4 119 -4v79q0 173 112 314q57 73 148 115.5t188 42.5q58 0 92 -21l2 -6q-31 -64 -57 -168l-22 -2q-18 32 -49.5 52t-69.5 20q-87 0 -139 -53t-52 -138q0 -14 5.5 -94.5t5.5 -122.5v-18h88q75 0 143 4l10 -15q-16 -40 -24 -84q-36 4 -148 4h-69 v-380q0 -270 20 -408l-4 -6q-37 6 -98 6t-99 -6l-4 6q21 136 21 408v380h-2q-103 0 -152 -4zM795 1223q0 41 31.5 72.5t72.5 31.5t73 -31.5t32 -72.5t-32 -73t-73 -32t-72.5 32t-31.5 73zM797 0q18 133 18 369v112q0 276 -18 398l4 6q31 -2 88 -2t90 4q12 0 15 -3.5t3 -17.5 q-18 -173 -18 -352v-145q0 -230 18 -369l-4 -6q-37 6 -96 6t-96 -6z" />
<glyph unicode="&#xfb02;" horiz-adv-x="1163" d="M39 799q27 42 45 84q27 -4 119 -4v79q0 173 112 314q57 73 148 115.5t188 42.5q58 0 92 -21l2 -6q-31 -64 -57 -168l-22 -2q-18 32 -49.5 52t-69.5 20q-87 0 -139 -53t-52 -138q0 -14 5.5 -94.5t5.5 -122.5v-18h88q75 0 143 4l10 -15q-16 -40 -24 -84q-36 4 -148 4h-69 v-380q0 -270 20 -408l-4 -6q-37 6 -98 6t-99 -6l-4 6q21 136 21 408v380h-2q-103 0 -152 -4zM797 0q18 132 18 410v577q0 297 -18 395l4 7q90 7 178 41q18 0 18 -21q-18 -234 -18 -385v-614q0 -278 18 -410l-4 -6q-37 6 -96 6t-96 -6z" />
<glyph unicode="&#xfb03;" horiz-adv-x="1728" d="M39 799q27 42 45 84q27 -4 119 -4v61q0 110 23.5 168t88.5 145q56 75 137.5 115.5t178.5 40.5q63 0 92 -18l2 -7q-25 -43 -57 -167l-23 -3q-40 72 -119 72q-83 0 -126.5 -60t-43.5 -151q0 -17 5.5 -82.5t5.5 -93.5v-20h405v102q0 59 6 100.5t24 80t33 62t50 70.5 q56 75 137 115.5t178 40.5q63 0 92 -18l2 -7q-25 -42 -57 -168l-23 -2q-40 72 -118 72q-83 0 -126.5 -60t-43.5 -151q0 -17 5 -103t5 -114v-20h88q75 0 143 4l11 -15q-18 -45 -25 -84q-36 4 -147 4h-70v-378q0 -272 20 -410l-4 -6q-28 6 -98 6q-32 0 -57 -1.5t-34 -2.5 l-9 -2l-2 6q20 129 20 410v378h-405v-378q0 -272 20 -410l-4 -6q-28 6 -98 6q-32 0 -57.5 -1.5t-34.5 -2.5l-9 -2l-2 6q21 136 21 410v378h-2q-103 0 -152 -4zM1343 1223q0 41 32 72.5t73 31.5t72.5 -31.5t31.5 -72.5t-31.5 -73t-72.5 -32t-73 32t-32 73zM1346 0 q18 133 18 369v112q0 276 -18 398l4 6q31 -2 88 -2t90 4q12 0 15 -3.5t3 -17.5q-18 -173 -18 -352v-145q0 -230 18 -369l-4 -6q-38 6 -96 6t-96 -6z" />
<glyph unicode="&#xfb04;" horiz-adv-x="1794" d="M39 799q27 42 45 84q27 -4 119 -4v61q0 110 23.5 168t88.5 145q56 75 137.5 115.5t178.5 40.5q63 0 92 -18l2 -7q-25 -43 -57 -167l-23 -3q-40 72 -119 72q-83 0 -126.5 -60t-43.5 -151q0 -17 5.5 -82.5t5.5 -93.5v-20h405v102q0 59 6 100.5t24 80t33 62t50 70.5 q56 75 137 115.5t178 40.5q63 0 92 -18l2 -7q-25 -42 -57 -168l-23 -2q-40 72 -118 72q-83 0 -126.5 -60t-43.5 -151q0 -17 5 -103t5 -114v-20h88q75 0 143 4l11 -15q-18 -45 -25 -84q-36 4 -147 4h-70v-378q0 -272 20 -410l-4 -6q-28 6 -98 6q-32 0 -57 -1.5t-34 -2.5 l-9 -2l-2 6q20 129 20 410v378h-405v-378q0 -272 20 -410l-4 -6q-28 6 -98 6q-32 0 -57.5 -1.5t-34.5 -2.5l-9 -2l-2 6q21 136 21 410v378h-2q-103 0 -152 -4zM1366 0q18 132 18 410v577q0 297 -18 395l4 7q90 7 178 41q19 0 19 -21q-19 -247 -19 -385v-614q0 -271 19 -410 l-4 -6q-37 6 -97 6q-58 0 -96 -6z" />
</font>
</defs>
</svg>
